<?xml version="1.0" standalone="no"?>
<!DOCTYPE svg PUBLIC "-//W3C//DTD SVG 1.1//EN" "http://www.w3.org/Graphics/SVG/1.1/DTD/svg11.dtd" >
<svg xmlns="http://www.w3.org/2000/svg">
<metadata>
This is a custom SVG webfont generated by Font Squirrel.
Copyright   : Copyright c 2009 by Jos Buivenga All rights reserved
Designer    : Jos Buivenga
Foundry     : Jos Buivenga
Foundry URL : httpwwwexljbriscom
</metadata>
<defs>
<font id="webfontfaYazmTK" horiz-adv-x="1175" >
<font-face units-per-em="2048" ascent="1536" descent="-512" />
<missing-glyph horiz-adv-x="512" />
<glyph unicode="&#xfb00;" horiz-adv-x="1386" d="M117 0l170 883h-172l30 153h170l11 45q18 96 61 169t91 112t108.5 62.5t103.5 29.5t88 6l90 -6l-34 -162q-25 4 -60 4q-203 0 -248 -211l-10 -49h469l8 45q18 96 61.5 169t91.5 112t108.5 62.5t104.5 29.5t89 6l88 -6l-35 -162q-25 4 -59 4q-203 0 -248 -211l-10 -49h250 l-29 -153h-250l-172 -883h-199l170 883h-467l-172 -883h-198z" />
<glyph unicode="&#xfb01;" horiz-adv-x="1302" d="M117 0l172 883h-174l30 153h172l11 45q25 119 80 201t127.5 118t129 48t113.5 12l90 -6l-34 -162q-25 4 -60 4q-203 0 -248 -211l-10 -49h641l-143 -733q-8 -45 -8 -63q0 -90 94 -90l47 4l-29 -154q-47 -4 -82 -4q-47 0 -81.5 6t-72.5 24.5t-59.5 60.5t-21.5 108 q0 33 10 90l119 598h-443l-172 -883h-198zM993 1243l41 203h209l-41 -203h-209z" />
<glyph unicode="&#xfb02;" horiz-adv-x="1314" d="M117 0l170 883h-172l28 153h172l9 37q82 406 540 406q94 0 188.5 -13.5t141.5 -27.5l47 -13l-215 -1112q-10 -41 -10 -69q0 -51 24.5 -68.5t69.5 -17.5l49 4l-33 -164q-41 -4 -79 -4q-236 0 -236 207q0 37 10 94l197 1008q-59 20 -172 20q-274 0 -322 -248l-8 -39h250 l-29 -153h-250l-172 -883h-198z" />
<glyph unicode="&#xfb03;" horiz-adv-x="1970" d="M117 0l170 883h-172l30 153h170l11 45q18 96 61 169t91 112t108.5 62.5t103.5 29.5t88 6l90 -6l-34 -162q-25 4 -60 4q-203 0 -248 -211l-10 -49h469l8 45q18 96 61.5 169t91.5 112t108.5 62.5t104.5 29.5t89 6l88 -6l-35 -162q-25 4 -59 4q-203 0 -248 -211l-10 -49h641 l-144 -733q-8 -45 -8 -63q0 -90 94 -90l48 4l-29 -154q-47 -4 -82 -4q-47 0 -81 6t-73 24.5t-60.5 60.5t-21.5 108q0 33 11 90l118 598h-442l-172 -883h-199l170 883h-467l-172 -883h-198zM1661 1243l41 203h209l-41 -203h-209z" />
<glyph unicode="&#xfb04;" horiz-adv-x="1982" d="M117 0l170 883h-172l30 153h170l11 45q18 96 61 169t91 112t108.5 62.5t103.5 29.5t88 6l90 -6l-34 -162q-25 4 -60 4q-203 0 -248 -211l-10 -49h469l6 37q82 406 543 406q211 0 375 -54l-215 -1112q-8 -49 -8 -69q0 -51 23.5 -68.5t68.5 -17.5l49 4l-33 -164 q-39 -4 -80 -4q-236 0 -235 207q0 37 10 94l197 1008q-59 20 -173 20q-274 0 -321 -248l-8 -39h250l-29 -153h-250l-172 -883h-199l170 883h-467l-172 -883h-198z" />
<glyph unicode="fj" horiz-adv-x="1251" d="M117 0l170 883h-172l30 153h170l11 45q18 96 61 169t91 112t108.5 62.5t103.5 29.5t88 6l90 -6l-34 -162q-25 4 -60 4q-203 0 -248 -211l-10 -49h649l-207 -1061q-23 -123 -78 -207.5t-125.5 -122.5t-128 -52.5t-114.5 -14.5l-94 4l33 160q16 -2 45 -2q35 0 68.5 8 t75.5 28.5t73.5 70t46.5 120.5l176 916h-449l-172 -883h-198zM1004 1243l38 203h205l-39 -203h-204z" />
<glyph unicode=" "  horiz-adv-x="512" />
<glyph unicode="&#x09;" horiz-adv-x="512" />
<glyph unicode="&#xa0;" horiz-adv-x="512" />
<glyph unicode="!" horiz-adv-x="514" d="M125 397l190 1049h207l-219 -1049h-178zM35 0l41 201h205l-39 -201h-207z" />
<glyph unicode="&#x22;" horiz-adv-x="712" d="M502 1036l86 434h155l-84 -434h-157zM215 1036l84 434h156l-84 -434h-156z" />
<glyph unicode="#" horiz-adv-x="1470" d="M164 0l143 391h-262l53 152h264l130 344h-263l56 149h262l151 410h170l-151 -410h317l152 410h170l-152 -410h262l-53 -149h-264l-129 -344h262l-55 -152h-262l-144 -391h-170l144 391h-318l-143 -391h-170zM532 543h318l129 344h-317z" />
<glyph unicode="$" horiz-adv-x="1112" d="M12 197l121 131q14 -16 41 -40t112 -63t175 -39q123 0 221 65.5t98 166.5q0 72 -60.5 127t-146.5 95t-173 85t-147 123t-60 184q0 164 130 275.5t330 128.5l41 221h146l-41 -223q96 -10 176 -45t110 -66l33 -29l-108 -145q-14 12 -39 30.5t-104 50.5t-160 32 q-131 0 -220.5 -64.5t-89.5 -159.5q0 -72 60.5 -125t147.5 -92t173 -83t146.5 -120.5t60.5 -181.5q0 -168 -132 -290.5t-337 -137.5l-39 -217h-145l41 223q-113 14 -203 59.5t-125 84.5z" />
<glyph unicode="%" horiz-adv-x="1564" d="M473 864q-125 0 -200.5 74t-75.5 195q0 129 108.5 233t245.5 104q123 0 199.5 -75.5t76.5 -194.5q0 -131 -109.5 -233.5t-244.5 -102.5zM20 0l1366 1446h205l-1368 -1446h-203zM487 1016q70 0 125.5 54t55.5 126q0 55 -36 90t-93 35q-70 0 -126.5 -55.5t-56.5 -128.5 q0 -53 36 -87t95 -34zM780 244q0 129 109.5 233.5t247.5 104.5q123 0 199.5 -76t76.5 -195q0 -131 -109.5 -233.5t-246.5 -102.5q-125 0 -201 74t-76 195zM942 248q0 -53 35 -87t94 -34q72 0 126 53t54 127q0 55 -35.5 90t-93.5 35q-70 0 -125 -56t-55 -128z" />
<glyph unicode="&#x26;" horiz-adv-x="1351" d="M59 356q0 139 95.5 260t244.5 162v4q-6 2 -15 7.5t-33.5 25t-44 45t-35 70.5t-15.5 100q0 199 147.5 319.5t352.5 120.5q47 0 96 -7t74 -13l24 -8l-78 -158q-55 14 -112 14q-119 0 -209 -74.5t-90 -199.5q0 -178 225 -178h268l41 201h199l-39 -201h191l-33 -168h-193 l-37 -197q-49 -256 -195.5 -381t-371.5 -125q-213 0 -335 105.5t-122 275.5zM270 375q0 -100 66.5 -159.5t185.5 -59.5q141 0 236.5 83t128.5 250l35 189h-275q-154 0 -265.5 -80t-111.5 -223z" />
<glyph unicode="'" horiz-adv-x="425" d="M215 1036l84 434h160l-86 -434h-158z" />
<glyph unicode="(" horiz-adv-x="653" d="M238 -195q-104 262 -105 549q0 653 422 1151h182q-428 -530 -428 -1155q0 -281 97 -545h-168z" />
<glyph unicode=")" horiz-adv-x="657" d="M-61 -195q426 537 426 1156q0 289 -97 544h168q104 -260 105 -549q0 -649 -422 -1151h-180z" />
<glyph unicode="*" horiz-adv-x="989" d="M344 674l-133 108l227 230v4l-258 74l88 167l250 -102l43 291h187l-74 -291l295 102l24 -174l-303 -79v-5l135 -221l-155 -106l-117 243h-4z" />
<glyph unicode="+" horiz-adv-x="1255" d="M424 0l98 504h-456l28 160h459l98 503h168l-98 -503h457l-31 -160h-457l-98 -504h-168z" />
<glyph unicode="," horiz-adv-x="546" d="M119 215h209l-281 -469h-164z" />
<glyph unicode="-" horiz-adv-x="976" d="M166 496l33 176h598l-33 -176h-598z" />
<glyph unicode="." horiz-adv-x="528" d="M43 0l41 215h213l-41 -215h-213z" />
<glyph unicode="/" horiz-adv-x="882" d="M-49 -86l833 1610h189l-834 -1610h-188z" />
<glyph unicode="0" horiz-adv-x="1284" d="M123 453q0 119 20.5 248.5t69.5 269t121 249t188.5 180t257.5 70.5q426 0 426 -477q0 -119 -20.5 -249t-69.5 -269t-120.5 -248.5t-188.5 -180.5t-258 -71q-426 1 -426 478zM330 457q0 -299 223 -299q115 0 206 87t140 219t73.5 267t24.5 254q0 303 -223 303 q-111 0 -200 -84t-140 -213t-77.5 -268t-26.5 -266z" />
<glyph unicode="1" horiz-adv-x="983" d="M-8 0l31 168h319l182 926l23 96h-4q-29 -35 -74 -72l-174 -145l-102 135l415 338h183l-250 -1278h315l-35 -168h-829z" />
<glyph unicode="2" horiz-adv-x="1200" d="M6 0q2 129 53.5 237.5t131 184.5t176 143.5t191.5 126t175 115.5t129 129t49 154q0 92 -59 146t-160 54q-55 0 -109.5 -19.5t-94 -47t-70.5 -56t-47 -49.5l-17 -18l-135 108l23 28q14 17 63 63.5t103.5 80t136.5 62t166 28.5q186 0 300.5 -98t114.5 -262q0 -115 -60 -216 t-151.5 -171t-200.5 -141l-206 -129q-96 -57 -169 -132t-89 -153h573l39 192h178l-71 -360h-963z" />
<glyph unicode="3" horiz-adv-x="1171" d="M4 168l119 139q6 -6 15 -16t42 -36t68 -45.5t90 -35.5t111 -16q145 0 253.5 94t108.5 229q0 104 -77 161.5t-197 57.5l-91 -4l-26 107l430 428l61 49v4q-45 -6 -73 -6h-389l-37 -184h-179l70 352h883l-29 -141l-471 -463q57 -8 111.5 -28.5t107.5 -58.5t86 -104.5 t33 -152.5q0 -209 -165 -366t-410 -157q-244 0 -416 162z" />
<glyph unicode="4" horiz-adv-x="1234" d="M14 387l25 127l842 932h239l-176 -895h197l-31 -164h-197l-75 -387h-201l76 387h-699zM276 551h469l111 567l31 111h-6q-33 -51 -72 -96l-533 -578v-4z" />
<glyph unicode="5" horiz-adv-x="1163" d="M12 164l119 133q4 -6 13.5 -15.5t39 -33t62.5 -42t85 -33.5t107 -15q152 0 268.5 100t116.5 246q0 115 -76.5 180.5t-201.5 65.5q-66 0 -131.5 -17.5t-98.5 -36.5l-32 -16l-115 45l215 721h745l-69 -352h-178l37 184h-392l-98 -320l-29 -81h4q82 41 199 41 q190 0 311 -113t121 -297q0 -219 -179 -376t-423 -157q-80 0 -153.5 19.5t-119.5 47.5t-81 55.5t-49 45.5z" />
<glyph unicode="6" horiz-adv-x="1234" d="M111 502q0 115 32.5 243.5t102 258t164 232.5t228.5 168.5t286 65.5q176 0 286 -61l-86 -166q-84 47 -204 47q-190 0 -332 -144.5t-207 -346.5h4q57 63 148.5 100t183.5 37q184 0 290.5 -109.5t106.5 -281.5q0 -221 -151.5 -395.5t-391.5 -174.5q-209 0 -334.5 142.5 t-125.5 384.5zM317 479q0 -127 73 -224t192 -97q137 0 231 110.5t94 263.5q0 106 -64.5 170t-185.5 64q-127 0 -233.5 -83t-106.5 -204z" />
<glyph unicode="7" horiz-adv-x="1124" d="M84 0l836 1214q31 43 55 66v4q-37 -6 -84 -6h-498l-37 -184h-178l70 352h991l-27 -139l-907 -1307h-221z" />
<glyph unicode="8" horiz-adv-x="1241" d="M70 356q0 250 323 451q-133 98 -133 244q0 164 139.5 291.5t366.5 127.5q193 0 304.5 -89t111.5 -240q0 -215 -258 -439q160 -106 159 -266q0 -188 -161.5 -324.5t-399.5 -136.5q-203 0 -327.5 104.5t-124.5 276.5zM782 778q31 25 68 63t83 119.5t46 155.5 q0 82 -58.5 130t-160.5 48q-127 0 -212 -70.5t-85 -170.5q0 -41 15.5 -74t57.5 -63.5t65.5 -45t93.5 -49.5zM281 379q0 -104 71.5 -164.5t182.5 -60.5q131 0 234 76.5t103 199.5q0 43 -19 79t-60 65.5t-77 49t-98.5 49t-93.5 46.5q-243 -154 -243 -340z" />
<glyph unicode="9" horiz-adv-x="1236" d="M74 39l84 164q84 -45 200 -45q190 0 333 144t208 347h-4q-57 -61 -148.5 -98t-185.5 -37q-184 0 -290.5 108.5t-106.5 280.5q0 141 64.5 269t191.5 213t287 85q211 0 336.5 -142t125.5 -384q0 -113 -33.5 -242t-102 -258t-164 -233.5t-229.5 -170t-286 -65.5 q-78 0 -147.5 16.5t-100.5 33.5zM618 684q127 0 236 82t109 201q0 127 -73 225t-190 98q-139 0 -234 -110.5t-95 -266.5q0 -104 64 -166.5t183 -62.5z" />
<glyph unicode=":" horiz-adv-x="616" d="M244 821l41 215h213l-41 -215h-213zM84 0l41 215h213l-41 -215h-213z" />
<glyph unicode=";" horiz-adv-x="628" d="M260 821l41 215h209l-43 -215h-207zM-86 -254l227 469h217l-280 -469h-164z" />
<glyph unicode="&#x3c;" horiz-adv-x="1255" d="M100 516v135l955 426v-182l-731 -309v-4l731 -310v-182z" />
<glyph unicode="=" horiz-adv-x="1255" d="M131 696v160h977v-160h-977zM131 309v160h977v-160h-977z" />
<glyph unicode="&#x3e;" horiz-adv-x="1255" d="M199 90v182l731 310v4l-731 309v182l954 -426v-135z" />
<glyph unicode="?" horiz-adv-x="968" d="M264 397l19 97q18 90 72.5 165.5t119.5 125.5l127 100q61 49 103.5 108.5t42.5 128.5q0 74 -53.5 120t-143.5 46q-129 -2 -250 -86l-88 154l51 33q33 20 128 53t186 33q168 0 274 -89.5t106 -238.5q0 -100 -45 -184t-111.5 -140.5t-135 -105.5t-124 -109.5t-67.5 -126.5 l-16 -84h-195zM184 0l39 201h207l-41 -201h-205z" />
<glyph unicode="@" horiz-adv-x="1624" d="M59 373q0 231 125 434t337 323.5t456 120.5q223 0 335.5 -97t112.5 -253q0 -43 -10 -94l-106 -551h147l-31 -150h-534q-174 0 -276.5 95.5t-102.5 236.5q0 176 144.5 307.5t369.5 131.5h213q2 20 2 36q0 74 -77 124t-208 50q-184 0 -345.5 -102t-256 -267t-94.5 -345 q0 -209 129 -340t350 -131l-30 -158q-285 0 -467.5 174t-182.5 455zM715 449q0 -86 53 -139.5t143 -53.5h207l94 483h-202q-119 0 -207 -88.5t-88 -201.5z" />
<glyph unicode="A" horiz-adv-x="1480" d="M-94 0l31 160h139l712 1286h230l209 -1286h141l-33 -160h-493l30 160h154l-49 321h-512l-176 -321h155l-32 -160h-506zM549 645h407l-77 502l-5 110h-6q-14 -51 -45 -110z" />
<glyph unicode="B" horiz-adv-x="1402" d="M-6 0l31 160h180l219 1128h-182l32 158h625q147 0 242 -41q82 -35 128 -108.5t46 -172.5q0 -121 -66.5 -216t-177.5 -144v-4q176 -68 176 -289q0 -143 -75.5 -255t-198.5 -167q-106 -49 -266 -49h-713zM541 838h303q111 0 186.5 74.5t75.5 189.5q0 100 -66 143 q-47 33 -137 33h-276zM410 168h303q115 0 190 49q61 39 99 107.5t38 148.5q0 94 -55 145.5t-151 51.5h-326z" />
<glyph unicode="C" horiz-adv-x="1517" d="M117 606q0 354 260 609t612 255q78 0 162 -13t174 -42t141 -88q39 -45 39 -103q0 -19 -4 -38l-37 -178h-186l20 116q2 11 3 22q0 47 -46 81q-55 41 -124.5 54t-143.5 13q-272 0 -465.5 -203.5t-193.5 -472.5q0 -205 118.5 -334.5t323.5 -129.5q129 0 250 44t137 128 l23 110h188l-33 -168q-18 -102 -121.5 -171.5t-219 -95.5t-232.5 -26q-291 0 -468 175t-177 456z" />
<glyph unicode="D" horiz-adv-x="1599" d="M-8 0l31 160h180l219 1128h-180l30 158h598q186 0 326 -47q332 -127 332 -527q0 -256 -135.5 -478t-356.5 -320q-162 -74 -381 -74h-663zM408 168h235q180 0 318 65q162 84 260 254t98 369q0 289 -215 381q-92 41 -246 41h-233z" />
<glyph unicode="E" horiz-adv-x="1300" d="M-6 0l31 160h180l219 1128h-182l32 158h1047l-66 -336h-178l33 168h-483l-90 -465h512l-35 -168h-510l-94 -477h518l33 174h180l-68 -342h-1079z" />
<glyph unicode="F" horiz-adv-x="1191" d="M-6 0l31 160h180l219 1128h-182l32 158h1002l-68 -342h-178l33 166h-438l-93 -479h500l-35 -168h-499l-88 -463h194l-31 -160h-579z" />
<glyph unicode="G" horiz-adv-x="1576" d="M115 604q0 354 259 610t627 256q123 0 246 -27.5t212 -94.5q74 -56 74 -131q0 -15 -3 -31l-35 -178h-188l20 106q2 11 2 22q0 48 -45 83q-55 43 -130 59t-155 16q-285 0 -478 -205.5t-193 -474.5q0 -207 122.5 -333.5t346.5 -126.5q135 0 264 44t147 136l39 190h-284 l32 160h471l-80 -405q-20 -106 -126.5 -178t-229.5 -99t-250 -27q-303 0 -484 173t-181 456z" />
<glyph unicode="H" horiz-adv-x="1740" d="M-8 0l31 160h180l219 1128h-180l30 158h568l-31 -158h-180l-94 -481h747l94 481h-182l31 158h569l-31 -158h-182l-221 -1128h182l-31 -160h-569l31 160h182l94 479h-747l-94 -479h182l-31 -160h-567z" />
<glyph unicode="I" horiz-adv-x="786" d="M-8 0l31 160h180l219 1128h-180l30 158h568l-31 -158h-182l-219 -1128h182l-31 -160h-567z" />
<glyph unicode="J" horiz-adv-x="1132" d="M0 317l27 170h196q-23 -82 -22 -145q0 -184 178 -184q94 0 170 61.5t100 194.5l170 874h-213l31 158h577l-30 -158h-160l-172 -889q-29 -145 -105.5 -243.5t-171 -139.5t-200.5 -41q-158 0 -266.5 87t-108.5 255z" />
<glyph unicode="K" horiz-adv-x="1419" d="M-8 0l31 160h180l219 1128h-180l30 158h545l-31 -158h-159l-88 -454h176l403 454h-123l31 158h487l-30 -158h-140l-477 -530v-4q33 -20 58 -88l161 -416q18 -51 41 -72.5t76 -21.5l62 4l-31 -160q-33 -4 -98 -4q-113 0 -165 49t-87 143l-152 410q-23 68 -104 68h-121 l-98 -506h178l-33 -160h-561z" />
<glyph unicode="L" horiz-adv-x="1234" d="M-4 0l31 160h178l219 1118h-182l32 168h570l-33 -168h-182l-217 -1110h503l48 233h178l-80 -401h-1065z" />
<glyph unicode="M" horiz-adv-x="1961" d="M-37 0l31 160h178l307 1128h-182l31 158h403l199 -881l12 -104h4q20 45 53 104l543 881h416l-33 -158h-180l-133 -1128h180l-33 -160h-551l31 160h174l103 864l28 119h-6q-29 -70 -55 -111l-477 -760h-183l-184 760l-10 111h-4q-8 -74 -19 -119l-235 -864h174l-31 -160 h-551z" />
<glyph unicode="N" horiz-adv-x="1720" d="M-6 0l31 160h180l219 1128h-182l32 158h377l510 -1047q18 -39 29 -100h6q4 68 14 113l172 876h-184l31 158h571l-31 -158h-182l-252 -1288h-196l-512 1047q-18 41 -29 100h-6q-4 -68 -14 -113l-168 -874h184l-31 -160h-569z" />
<glyph unicode="O" horiz-adv-x="1687" d="M115 606q0 229 123.5 430t325.5 317.5t427 116.5q281 0 455 -172t174 -442q0 -233 -125 -438t-326.5 -324t-425.5 -119q-279 0 -453.5 177.5t-174.5 453.5zM322 614q0 -201 121.5 -328.5t314.5 -127.5q250 0 451.5 204.5t201.5 483.5q0 195 -122 319.5t-314 124.5 q-252 0 -452.5 -201t-200.5 -475z" />
<glyph unicode="P" horiz-adv-x="1347" d="M-8 0l31 160h182l219 1128h-182l32 158h658q135 0 215 -31q98 -37 156.5 -127t58.5 -219q0 -158 -86 -292t-227 -193q-98 -41 -242 -41h-324l-73 -383h182l-31 -160h-569zM516 711h285q94 0 166 32q84 39 135 124t51 190q0 143 -96 192q-57 29 -152 29h-278z" />
<glyph unicode="Q" horiz-adv-x="1685" d="M115 606q0 229 122.5 430t322.5 317.5t419 116.5q287 0 465 -172t178 -442q0 -346 -268 -614l133 -160l-131 -119l-133 170q-209 -158 -465 -158q-289 0 -466 177.5t-177 453.5zM324 614q0 -201 121.5 -328.5t314.5 -127.5q180 0 344 114l-176 217l129 117l172 -215 q184 199 184 455q0 195 -122 319.5t-314 124.5q-254 0 -453.5 -201t-199.5 -475z" />
<glyph unicode="R" horiz-adv-x="1441" d="M-8 0l31 160h182l219 1128h-182l32 158h637q170 0 258 -45q170 -88 170 -305q0 -166 -103 -300t-275 -171v-7q33 -39 49 -77l112 -291q14 -35 24.5 -51.5t33 -29.5t59.5 -13l59 4l-30 -160q-33 -4 -97 -4q-111 0 -162 49t-87 143l-117 314q-18 49 -46 65.5t-83 16.5h-182 l-84 -424h176l-31 -160h-563zM524 752h285q131 0 226 89t95 228q0 121 -77 170q-57 39 -185 39h-241z" />
<glyph unicode="S" horiz-adv-x="1204" d="M59 297l29 143h188l-22 -112q-3 -15 -3 -28q0 -67 68 -101q82 -41 205 -41q143 0 234.5 73.5t91.5 190.5q0 70 -47 121t-117 79l-152 62q-83 35 -153 73t-117 111.5t-47 173.5q0 201 161 314.5t390 113.5q96 0 188.5 -22.5t159.5 -83.5q53 -48 53 -112q0 -17 -4 -35 l-32 -156h-189l19 100q2 10 2 20q0 33 -28 56q-36 31 -87 42t-109 11q-133 0 -223 -64.5t-90 -170.5q0 -78 65.5 -130.5t158.5 -86t185.5 -73.5t158 -123t65.5 -208q0 -209 -164 -334t-399 -125q-76 0 -154 16.5t-150.5 51.5t-111.5 101q-27 47 -27 104q-1 24 4 49z" />
<glyph unicode="T" horiz-adv-x="1363" d="M276 0l31 160h180l220 1118h-340l-43 -225h-181l78 393h1241l-78 -393h-178l43 225h-338l-219 -1118h182l-30 -160h-568z" />
<glyph unicode="U" horiz-adv-x="1640" d="M217 399q0 49 21 172l139 717h-180l30 158h568l-31 -158h-182l-140 -719q-18 -106 -18 -147q0 -123 81 -193.5t226 -70.5q170 0 285 92q117 98 147 268l152 770h-182l30 158h570l-31 -158h-182l-154 -786q-57 -281 -258 -420q-160 -106 -383 -107q-225 0 -366.5 113.5 t-141.5 310.5z" />
<glyph unicode="V" horiz-adv-x="1458" d="M502 0l-207 1288h-139l30 158h508l-30 -158h-160l139 -952q4 -31 4 -65q0 -23 -2 -48h6q20 61 45 113l510 952h-159l32 158h520l-30 -158h-142l-708 -1288h-217z" />
<glyph unicode="W" horiz-adv-x="2064" d="M375 0l-72 1288h-139l31 158h507l-30 -158h-172l41 -948l-6 -109h8q16 57 41 109l518 1106h174l86 -1106v-109h6q16 57 37 109l410 948h-173l31 158h522l-30 -158h-140l-575 -1288h-233l-82 1026q-1 17 -2 36q0 37 6 79h-9q-16 -63 -40 -115l-482 -1026h-233z" />
<glyph unicode="X" horiz-adv-x="1372" d="M-57 0l30 160h136l487 581l-252 547h-139l31 158h493l-31 -158h-153l168 -383l24 -57h4q16 25 45 57l306 383h-146l33 158h494l-31 -158h-135l-490 -586l254 -542h141l-32 -160h-492l31 160h151l-168 377l-26 61h-4q-20 -31 -47 -61l-301 -377h147l-33 -160h-495z" />
<glyph unicode="Y" horiz-adv-x="1335" d="M264 0l31 160h182l88 452l-274 676h-137l30 158h490l-31 -158h-151l178 -454l18 -62h4q18 31 41 62l359 454h-150l31 158h502l-31 -158h-137l-537 -676l-88 -452h180l-31 -160h-567z" />
<glyph unicode="Z" horiz-adv-x="1300" d="M-2 0l27 135l940 1075l73 70v4q-41 -6 -82 -6h-524l-43 -225h-180l78 393h1042l-26 -133l-945 -1077l-73 -70v-4q41 6 82 6h555l47 233h178l-80 -401h-1069z" />
<glyph unicode="[" horiz-adv-x="647" d="M45 -195l332 1700h338l-29 -149h-166l-270 -1399h166l-31 -152h-340z" />
<glyph unicode="\" horiz-adv-x="864" d="M473 -86l-207 1610h168l207 -1610h-168z" />
<glyph unicode="]" horiz-adv-x="647" d="M-23 -43h164l271 1399h-164l31 149h339l-331 -1700h-338z" />
<glyph unicode="^" horiz-adv-x="1255" d="M20 506l410 940h129l410 -940h-181l-294 721l-293 -721h-181z" />
<glyph unicode="_" horiz-adv-x="1142" d="M-98 0h1099l-28 -160h-1102z" />
<glyph unicode="`" horiz-adv-x="1021" d="M414 1546l-203 260h221l160 -260h-178z" />
<glyph unicode="a" horiz-adv-x="1140" d="M0 238q0 115 67.5 198.5t178 124.5t221.5 58.5t229 17.5h52q14 70 14 102q0 158 -189 158q-72 0 -149.5 -24.5t-118.5 -49.5l-41 -24l-51 153q20 12 55 30.5t138.5 48.5t201.5 30q156 0 254.5 -73t98.5 -224q0 -63 -47.5 -273t-47.5 -251q0 -90 95 -90l47 4l-29 -154 q-37 -4 -94 -4q-211 0 -213 188h-4q2 0 -14.5 -21.5t-48.5 -52t-74 -61.5t-103 -52.5t-127 -21.5q-129 0 -215 69t-86 194zM199 270q0 -63 41 -102t120 -39q119 0 219.5 106.5t133.5 231.5l10 41h-53q-55 0 -106.5 -3t-121 -17.5t-121 -39t-87 -71t-35.5 -107.5z" />
<glyph unicode="b" horiz-adv-x="1253" d="M59 0l250 1292h-174l31 154h371l-91 -469l-26 -94h4q55 80 149.5 129t196.5 49q182 0 284.5 -115t102.5 -311q0 -285 -171 -472.5t-394 -187.5q-109 0 -194 48.5t-122 140.5h-4q-2 -39 -10 -84l-16 -80h-187zM340 410q0 -115 58.5 -189t174.5 -74q143 0 262 131.5 t119 342.5q0 125 -62.5 195.5t-170.5 70.5q-158 0 -269.5 -143.5t-111.5 -333.5z" />
<glyph unicode="c" horiz-adv-x="1140" d="M57 430q0 254 193.5 442.5t466.5 188.5q86 0 170 -20.5t146 -78.5q51 -47 51 -114q0 -15 -3 -31l-24 -119h-176l14 70q1 8 1 16q0 46 -53 73q-62 32 -147 32q-170 0 -303 -133t-133 -312q0 -135 83 -216t226 -81q92 0 180.5 34t131.5 69l43 33l57 -154q-6 -6 -18.5 -16.5 t-54.5 -37t-88 -47t-119.5 -37t-149.5 -16.5q-225 0 -359.5 125t-134.5 330z" />
<glyph unicode="d" horiz-adv-x="1310" d="M61 399q0 287 170 474.5t402 187.5q104 0 186 -44t115 -134h4q2 39 10 75l64 334h-172l30 154h371l-221 -1143q-8 -45 -8 -63q0 -90 94 -90l47 4l-29 -154q-45 -4 -86 -4q-106 0 -163.5 44t-55.5 142h-4q-55 -88 -154.5 -147.5t-209.5 -59.5q-184 0 -287 113.5 t-103 310.5zM264 414q0 -125 62.5 -196t171.5 -71q158 0 268.5 146.5t110.5 331.5q0 115 -58.5 188.5t-173.5 73.5q-145 0 -263 -131t-118 -342z" />
<glyph unicode="e" horiz-adv-x="1138" d="M61 418q0 262 174.5 452.5t430.5 190.5q193 0 293 -104.5t100 -278.5l-33 -178h-754q-8 -35 -8 -74q0 -123 78 -201t217 -78q80 0 163 30t126 61l43 28l55 -155l-55 -37q-35 -23 -139.5 -61t-202.5 -38q-223 0 -355.5 123t-132.5 320zM301 627h553q6 35 6 67 q0 102 -54 155.5t-147 53.5q-117 0 -214 -73.5t-144 -202.5z" />
<glyph unicode="f" horiz-adv-x="718" d="M117 0l170 883h-172l30 153h170l11 45q18 96 61 169t91 112t108.5 62.5t103.5 29.5t88 6l90 -6l-34 -162q-25 4 -60 4q-203 0 -248 -211l-10 -49h250l-29 -153h-250l-172 -883h-198z" />
<glyph unicode="g" horiz-adv-x="1284" d="M88 -195q113 -68 277 -67q332 0 391 328l30 116h-4q-121 -170 -319 -170q-186 0 -290.5 116t-104.5 304q0 150 61 291t189 239.5t296 98.5q131 0 216 -51.5t104 -122.5h4q-2 14 4 43q20 106 137 106h224l-29 -153h-115q-43 0 -53 -41l-156 -809q-33 -162 -125 -270.5 t-204.5 -150.5t-243.5 -42q-207 0 -373 92zM270 446q0 -121 62.5 -191.5t177.5 -70.5t199 79t121.5 185.5t37.5 217.5q0 223 -237 223q-164 0 -262.5 -133.5t-98.5 -309.5z" />
<glyph unicode="h" horiz-adv-x="1316" d="M59 0l250 1292h-166l29 154h367l-103 -535l-26 -92h4q37 72 153.5 157t272.5 85q137 0 213.5 -70.5t76.5 -202.5q0 -70 -45 -292t-45 -256q0 -53 23.5 -71.5t69.5 -18.5l49 4l-31 -154q-39 -4 -88 -4q-227 0 -227 194q0 49 44 268.5t44 270.5q0 150 -154 150 q-152 0 -270.5 -121t-151.5 -293l-92 -465h-197z" />
<glyph unicode="i" horiz-adv-x="653" d="M342 1243l41 203h209l-41 -203h-209zM150 195q0 33 10 90l119 598h-175l31 153h371l-144 -733q-8 -45 -8 -63q0 -90 95 -90l47 4l-29 -154q-47 -4 -82 -4q-47 0 -82 6t-72.5 24.5t-59 60.5t-21.5 108z" />
<glyph unicode="j" horiz-adv-x="610" d="M352 1243l39 203h209l-39 -203h-209zM111 -33l176 916h-174l30 153h373l-207 -1061q-23 -123 -78 -207.5t-125.5 -122.5t-128 -52.5t-114.5 -14.5l-94 4l32 160q16 -2 45 -2q35 0 69 8t76 28.5t74 69.5t46 121z" />
<glyph unicode="k" horiz-adv-x="1144" d="M57 0l252 1292h-172l29 154h373l-158 -809h131l264 246h-129l29 153h463l-31 -153h-121l-334 -312v-4q29 -23 56 -82l112 -247q18 -43 42 -64.5t73 -21.5l57 2l-28 -154q-29 -4 -91 -4q-59 0 -99 12t-67.5 44t-40 53.5t-34.5 74.5l-115 256q-23 49 -84 49h-82l-98 -485 h-197z" />
<glyph unicode="l" horiz-adv-x="604" d="M100 201q0 37 11 94l194 997h-174l31 154h370l-217 -1133q-10 -41 -10 -69q0 -51 23.5 -68.5t70.5 -17.5l50 4l-33 -164q-41 -4 -82 -4q-234 0 -234 207z" />
<glyph unicode="m" horiz-adv-x="2019" d="M117 0l164 840q6 43 -37 43h-129l30 153h234q113 0 113 -86q0 -61 -31 -141h4q45 86 162.5 169t249.5 83q244 0 260 -252h4q61 111 171.5 181.5t235.5 70.5q133 0 209 -71.5t76 -203.5q0 -66 -45 -289t-45 -257q0 -53 23.5 -71.5t68.5 -18.5l49 4l-31 -154q-39 -4 -88 -4 q-227 0 -227 194q0 47 44 269.5t44 271.5q0 74 -33.5 112t-117.5 38q-137 0 -242 -124t-135 -284l-92 -473h-199l121 621q14 96 14 116q0 143 -147 144q-141 0 -249 -126t-140 -292l-91 -463h-198z" />
<glyph unicode="n" horiz-adv-x="1376" d="M117 0l164 838q1 6 0 10q0 34 -37 35h-129l30 153h236q111 0 111 -88q0 -66 -31 -139h4q37 76 154.5 164t283.5 88q135 0 211 -70.5t76 -202.5q0 -70 -45 -292t-45 -256q0 -53 23.5 -71.5t68.5 -18.5l49 4l-31 -154q-41 -4 -88 -4q-227 0 -227 194q0 49 44 268.5 t44 270.5q0 150 -156 150q-150 0 -269.5 -122t-151.5 -292l-91 -465h-198z" />
<glyph unicode="o" horiz-adv-x="1284" d="M59 432q0 262 197 445.5t457 183.5q211 0 344 -126t133 -327q0 -264 -197.5 -448.5t-455.5 -184.5q-211 0 -344.5 127t-133.5 330zM262 440q0 -131 81 -212t210 -81q166 0 300 132.5t134 318.5q0 129 -81 210t-210 81q-168 0 -301 -131.5t-133 -317.5z" />
<glyph unicode="p" horiz-adv-x="1314" d="M37 -410l242 1248q1 6 0 11q0 34 -35 34h-129l30 153h232q106 0 106 -80q0 -23 -20 -94h4q57 88 151.5 143.5t210.5 55.5q182 0 285 -115t103 -311q0 -285 -170 -472.5t-394 -187.5q-106 0 -188 46.5t-121 134.5h-4q-2 -43 -12 -97l-92 -469h-199zM401 414 q0 -117 58.5 -192t173.5 -75q145 0 263 131.5t118 342.5q0 125 -61.5 195.5t-172.5 70.5q-156 0 -267.5 -144.5t-111.5 -328.5z" />
<glyph unicode="q" horiz-adv-x="1255" d="M61 397q0 289 170 476.5t402 187.5q238 0 311 -184h4q0 29 8 71l17 88h188l-252 -1296h174l-30 -150h-373l94 473l27 97h-4q-51 -78 -140.5 -131.5t-205.5 -53.5q-184 0 -287 113.5t-103 308.5zM264 414q0 -125 62.5 -196t171.5 -71q158 0 269.5 146.5t111.5 331.5 q0 115 -58.5 188.5t-173.5 73.5q-145 0 -264 -131t-119 -342z" />
<glyph unicode="r" horiz-adv-x="837" d="M117 0l162 838q1 7 1 12q0 32 -38 33h-129l32 153h234q111 0 110 -88q0 -66 -36 -176h4q55 119 155.5 198t216.5 79q37 0 62 -5l-39 -196q-31 6 -55 6q-137 0 -255 -141.5t-153 -327.5l-74 -385h-198z" />
<glyph unicode="s" horiz-adv-x="995" d="M10 231l19 103h174l-13 -68q-2 -10 -2 -19q0 -38 34 -64q42 -32 90 -39t102 -7q100 0 167.5 41t67.5 111q0 53 -51 91t-124 64.5t-146.5 58.5t-124.5 92t-51 148q0 150 130 234t310 84q143 0 243 -57q82 -48 82 -129q0 -17 -4 -35l-22 -113h-174l14 74q2 9 2 17 q0 42 -45 61q-53 23 -125 22q-88 0 -151.5 -38t-63.5 -105q0 -53 51.5 -91t125 -62.5t146 -55.5t124 -89.5t51.5 -144.5q0 -152 -127 -246t-334 -94q-158 0 -279 65q-100 54 -100 150q0 20 4 41z" />
<glyph unicode="t" horiz-adv-x="731" d="M154 295q0 45 12 104l94 484h-174l31 153h178l55 285h193l-56 -285h250l-30 -153h-250l-92 -484q-8 -39 -9 -80q0 -164 172 -163l58 4l-33 -164q-33 -4 -66 -4q-333 0 -333 303z" />
<glyph unicode="u" horiz-adv-x="1363" d="M152 248q0 66 14 131l96 504h-172l31 153h371l-119 -616q-16 -70 -17 -119q0 -145 156 -145q147 0 265 126t147 283l61 318h-172l31 153h370l-143 -733q-6 -33 -6 -63q0 -90 92 -90l49 4l-30 -154q-45 -4 -95 -4q-109 0 -162 56q-46 47 -46 136q0 17 1 35h-4 q-63 -98 -171.5 -173t-256.5 -75q-127 0 -208.5 68t-81.5 205z" />
<glyph unicode="v" horiz-adv-x="1193" d="M367 0l-162 883h-131l28 153h459l-31 -153h-133l103 -604l4 -97h6q16 51 41 97l338 604h-133l30 153h469l-28 -153h-131l-506 -883h-223z" />
<glyph unicode="w" horiz-adv-x="1761" d="M301 0l-96 883h-129l30 153h457l-28 -153h-142l60 -602l-2 -97h6q14 53 32 97l377 753h183l77 -753l-2 -97h6q14 53 35 97l295 602h-139l29 153h471l-31 -153h-129l-438 -883h-224l-81 692v99h-7q-14 -51 -37 -99l-352 -692h-221z" />
<glyph unicode="x" horiz-adv-x="1153" d="M-41 0l29 154h143l326 385l-138 307q-18 37 -59 37h-123l31 153h192q45 0 67 -15t40 -58l96 -232l23 -63h4q18 33 47 65l244 303h274l-29 -153h-147l-309 -361l131 -284q14 -31 26.5 -46.5t36 -27.5t60.5 -12l69 2l-30 -154q-29 -4 -89 -4q-61 0 -102 12t-68.5 44 t-40 54.5t-34.5 73.5l-62 154l-24 63h-4q-18 -31 -45 -65l-265 -332h-270z" />
<glyph unicode="y" horiz-adv-x="1212" d="M-31 -219q49 -45 137 -45q129 0 220 143l61 103l-186 901h-131l30 153h465l-28 -153h-138l111 -617q4 -20 4 -42.5t-2 -35.5v-12h6q16 45 43 90l348 617h-133l31 153h465l-31 -153h-127l-616 -1047q-156 -266 -396 -266q-143 0 -225 68z" />
<glyph unicode="z" horiz-adv-x="1085" d="M-23 0l25 131l678 672l86 80v4q-41 -4 -98 -4h-324l-31 -166h-174l64 319h846l-27 -131l-676 -672q-20 -20 -42 -39l-34 -31q-12 -11 -12 -9v-4q43 4 100 4h367l33 165h172l-62 -319h-891z" />
<glyph unicode="{" horiz-adv-x="698" d="M150 66q0 39 10 104l35 184q6 35 6 60q0 68 -34 108.5t-69 46.5l-32 9l34 176q6 0 18.5 2t45.5 16t60.5 36.5t54 68t38.5 104.5l37 184q72 367 445 342l-29 -151q-29 2 -60.5 -4t-70.5 -24.5t-70.5 -67t-46.5 -119.5l-43 -226q-35 -170 -184 -235l-33 -12v-4l12 -7 q8 -4 30 -21.5t37 -40t28.5 -60t13.5 -82.5q0 -27 -6 -60l-43 -219q-8 -53 -8 -76q0 -49 18 -80.5t48 -45t54.5 -16.5t51.5 -1l-29 -152q-20 -4 -49 -4q-27 0 -55.5 5.5t-69.5 21.5t-71.5 44t-52 78t-21.5 118z" />
<glyph unicode="|" horiz-adv-x="679" d="M258 -326v1948h176v-1948h-176z" />
<glyph unicode="}" horiz-adv-x="698" d="M-84 -199l29 154q29 -4 61.5 2t71.5 25.5t69.5 67.5t45.5 120l47 244q12 59 38.5 107t56.5 74t57.5 43t45.5 24l19 6v4q-14 6 -34 18t-53.5 64.5t-33.5 122.5q0 29 6 61l39 203q8 35 8 71q0 49 -18.5 81t-48 45.5t-54 16.5t-51.5 1l31 151q45 6 95 -2t103.5 -33.5t87 -84 t33.5 -142.5q0 -49 -12 -104l-31 -164q-6 -35 -6 -59q0 -129 115 -160l22 -4l-34 -176q-6 0 -18.5 -2.5t-45.5 -16.5t-60.5 -36.5t-55 -67.5t-40.5 -105l-39 -205q-73 -375 -446 -344z" />
<glyph unicode="~" horiz-adv-x="1226" d="M121 418q0 174 75.5 260t211.5 86q72 0 130 -32t88.5 -68.5t77 -68.5t97.5 -32q72 0 103.5 57.5t31.5 135.5h162q0 -346 -285 -346q-72 0 -130 30.5t-89 68.5t-77 68.5t-97 30.5q-72 0 -103.5 -57t-31.5 -133h-164z" />
<glyph unicode="&#xa1;" horiz-adv-x="501" d="M188 836l41 200h207l-41 -200h-207zM-51 -410l219 1049h178l-190 -1049h-207z" />
<glyph unicode="&#xa2;" horiz-adv-x="1157" d="M403 -27l35 181q-156 31 -246 148.5t-90 299.5q0 262 162 469t398 227l32 172h146l-35 -180q78 -14 138.5 -51t92 -80t53 -84t27.5 -67l6 -27l-180 -68l-5 22q-3 13 -19.5 48t-39 61.5t-68.5 48t-105 21.5q-170 0 -284 -149.5t-114 -358.5q0 -125 62.5 -198.5 t183.5 -73.5q90 0 170 50t113 99l34 49l170 -71q-6 -12 -17 -31.5t-53 -72t-91.5 -93.5t-129 -77.5t-167.5 -43.5l-33 -170h-146z" />
<glyph unicode="&#xa3;" horiz-adv-x="1261" d="M-23 0l31 164h176l97 489h-144l29 144h139l60 293q31 164 169 272t320 108q197 0 328 -124l12 -15l-131 -125q-8 8 -25.5 22.5t-74 37t-113.5 22.5q-111 0 -189.5 -63.5t-95.5 -157.5l-53 -270h369l-29 -144h-367l-96 -489h518l47 237h179l-78 -401h-1078z" />
<glyph unicode="&#xa5;" horiz-adv-x="1298" d="M420 0l82 408h-334l22 129h334l17 75l-37 99h-279l25 129h211l-219 606h219l155 -451l54 -209h4q61 111 125 207l327 453h242l-457 -606h209l-24 -129h-279l-72 -99l-16 -75h332l-25 -129h-329l-82 -408h-205z" />
<glyph unicode="&#xa7;" horiz-adv-x="886" d="M207 227l12 789q-4 193 110.5 323.5t313.5 130.5q172 0 287 -104l8 -6l-111 -119q-68 63 -184 64q-125 0 -195.5 -81t-68.5 -208l-14 -789h-158zM-27 -16l111 120q68 -63 184 -63q125 0 196 80t68 207l15 788h158l-13 -788q4 -193 -111.5 -324t-314.5 -131 q-170 0 -286 104z" />
<glyph unicode="&#xa8;" horiz-adv-x="1021" d="M498 1599l43 207h176l-43 -207h-176zM88 1599l41 207h178l-43 -207h-176z" />
<glyph unicode="&#xa9;" horiz-adv-x="1669" d="M125 723q0 311 213 529t514 218q307 0 521 -218t214 -529t-214 -529.5t-521 -218.5q-301 0 -514 218.5t-213 529.5zM276 723q0 -256 166 -432t410 -176q248 0 417 176t169 432t-169 432t-417 176q-244 0 -410 -176t-166 -432zM465 721q0 168 111.5 288.5t291.5 120.5 q195 0 312 -165l22 -37l-125 -68q-8 14 -23.5 36t-68.5 57.5t-113 35.5q-115 0 -184.5 -79t-69.5 -189q0 -115 68 -191.5t186 -76.5q121 0 197 116l8 13l125 -68q-4 -8 -12 -21.5t-38 -49t-65.5 -62.5t-94 -48.5t-124.5 -21.5q-182 0 -292.5 120t-110.5 290z" />
<glyph unicode="&#xaa;" horiz-adv-x="874" d="M414 782q-76 0 -134.5 46t-58.5 128q0 246 422 246h33q4 20 4 25q18 121 -107 121q-41 0 -86 -14.5t-69 -26.5l-27 -15l-43 105q106 70 258 69q225 0 225 -198q0 -31 -10 -76l-78 -395h-139l21 98h-4q-8 -12 -24.5 -30.5t-71 -50.5t-111.5 -32zM463 899q68 0 124 64.5 t68 142.5h-22q-260 0 -260 -133q0 -74 90 -74zM139 543l23 116h563l-23 -116h-563z" />
<glyph unicode="&#xab;" horiz-adv-x="1153" d="M752 158l-263 424l424 417h211l-444 -430l260 -411h-188zM344 158l-262 424l391 417h209l-410 -430l260 -411h-188z" />
<glyph unicode="&#xac;" horiz-adv-x="1294" d="M145 696v160h977v-547h-166v387h-811z" />
<glyph unicode="&#xad;" horiz-adv-x="976" d="M166 496l33 176h598l-33 -176h-598z" />
<glyph unicode="&#xae;" horiz-adv-x="1669" d="M125 723q0 311 213 529t514 218q307 0 521 -218t214 -529t-214 -529.5t-521 -218.5q-301 0 -514 218.5t-213 529.5zM276 723q0 -256 166 -432t410 -176q248 0 417 176t169 432t-169 432t-417 176q-244 0 -410 -176t-166 -432zM602 340v772h299q109 0 175.5 -64.5 t66.5 -170.5q0 -82 -43 -136.5t-99 -68.5v-4q8 -8 27 -43l150 -285h-160l-144 299h-126v-299h-146zM748 745h122q59 0 92 35t33 97q0 59 -32.5 91.5t-90.5 32.5h-124v-256z" />
<glyph unicode="&#xaf;" horiz-adv-x="1021" d="M129 1606l27 145h520l-27 -145h-520z" />
<glyph unicode="&#xb0;" horiz-adv-x="806" d="M473 864q-123 0 -201.5 75t-78.5 191q0 133 108.5 236.5t241.5 103.5q123 0 201.5 -75.5t78.5 -190.5q0 -135 -109.5 -237.5t-240.5 -102.5zM483 1016q70 0 125.5 53t55.5 125q0 55 -36 91t-93 36q-72 0 -127.5 -55.5t-55.5 -126.5q0 -55 36 -89t95 -34z" />
<glyph unicode="&#xb1;" horiz-adv-x="1255" d="M82 504v160h459v503h168v-503h456v-160h-456v-504h-168v504h-459zM115 -195h1018v-159h-1018v159z" />
<glyph unicode="&#xb2;" horiz-adv-x="776" d="M131 866q2 100 44 181t103.5 129.5t133 94.5t132 78.5t101.5 80t41 102.5q0 47 -34 77.5t-87 30.5q-47 0 -95 -24.5t-73 -48.5l-26 -25l-90 100q14 16 38.5 39t102.5 62t153 39q119 0 195 -64.5t76 -171.5q0 -88 -49 -158.5t-122 -115.5t-147.5 -85t-136 -89t-78.5 -105 h326l20 105h129l-45 -232h-612z" />
<glyph unicode="&#xb3;" horiz-adv-x="770" d="M440 846q-92 0 -167.5 33.5t-106.5 66.5l-31 35l101 100q8 -10 23 -25.5t68.5 -42t112.5 -26.5q78 0 136.5 53.5t58.5 128.5q0 55 -46 87t-110 32h-63l-21 74l240 235l53 41v7q-29 -6 -61 -7h-201l-20 -108h-130l46 231h569l-19 -98l-276 -266q76 -16 135.5 -72.5 t59.5 -153.5q0 -127 -102 -226t-249 -99z" />
<glyph unicode="&#xb4;" horiz-adv-x="1021" d="M152 1546l262 260h237l-303 -260h-196z" />
<glyph unicode="&#xb5;" horiz-adv-x="1228" d="M184 -121l-55 -289h-176l280 1446h199l-119 -610q-14 -63 -14 -119q0 -147 158 -147q147 0 265 123t148 282l93 471h198l-203 -1036h-192l22 121l27 98h-4q-53 -92 -164.5 -168t-255.5 -76q-123 0 -184 68h-4q-7 -105 -19 -164z" />
<glyph unicode="&#x3bc;" horiz-adv-x="1228" d="M184 -121l-55 -289h-176l280 1446h199l-119 -610q-14 -63 -14 -119q0 -147 158 -147q147 0 265 123t148 282l93 471h198l-203 -1036h-192l22 121l27 98h-4q-53 -92 -164.5 -168t-255.5 -76q-123 0 -184 68h-4q-7 -105 -19 -164z" />
<glyph unicode="&#xb6;" horiz-adv-x="1230" d="M424 -102l117 596q-162 0 -282 119.5t-120 295.5q0 215 173 376t386 161h582l-33 -176h-403l-266 -1372h-154zM705 -102l243 1255h152l-242 -1255h-153z" />
<glyph unicode="&#xb7;" horiz-adv-x="573" d="M158 485l41 215h207l-41 -215h-207z" />
<glyph unicode="&#xb8;" horiz-adv-x="1021" d="M256 -199l113 246l96 -20l-2 -17l-55 -125q59 -6 98 -43t39 -96q0 -94 -80 -142t-180 -48q-29 0 -57.5 3t-43.5 7l-14 4l23 108q35 -12 86 -12q121 0 120 76q0 59 -108 59h-35z" />
<glyph unicode="&#xb9;" horiz-adv-x="688" d="M129 866l25 127h211l96 496l18 74h-4q-20 -29 -51 -52l-100 -81l-76 102l282 229h138l-150 -768h209l-25 -127h-573z" />
<glyph unicode="&#xba;" horiz-adv-x="968" d="M528 786q-135 0 -218 79t-83 206q0 164 124 280.5t284 116.5q135 0 219 -79.5t84 -206.5q0 -164 -126 -280t-284 -116zM541 920q94 0 170.5 73.5t76.5 180.5q0 72 -47 117.5t-118 45.5q-94 0 -170 -74.5t-76 -179.5q0 -74 45 -118.5t119 -44.5zM152 543l22 116h639 l-22 -116h-639z" />
<glyph unicode="&#xbb;" horiz-adv-x="1155" d="M459 158l411 430l-262 411h189l264 -424l-393 -417h-209zM16 158l447 430l-262 411h188l264 -424l-426 -417h-211z" />
<glyph unicode="&#xbc;" horiz-adv-x="1970" d="M1499 0l43 223h-424l19 99l520 573h168l-107 -551h125l-22 -121h-127l-43 -223h-152zM1300 344h267l57 299l27 92h-6q-27 -45 -60 -80l-285 -307v-4zM594 0h-164l969 1446h162zM102 551l25 127h211l96 496l19 73h-4q-20 -29 -52 -51l-100 -82l-76 103l283 229h137 l-149 -768h208l-24 -127h-574z" />
<glyph unicode="&#xbd;" horiz-adv-x="1937" d="M1120 0q2 100 44 181t103.5 129t133.5 94.5t132 79t101 79.5t41 103q0 47 -33.5 77.5t-87.5 30.5q-47 0 -95 -24.5t-75 -49.5l-24 -24l-90 100q14 16 38.5 39t102.5 61.5t154 38.5q119 0 194.5 -64.5t75.5 -170.5q0 -88 -49 -158.5t-122 -116t-147.5 -85t-136 -89 t-77.5 -104.5h325l21 104h129l-45 -231h-613zM584 0h-164l969 1446h161zM90 551l25 127h211l96 496l18 73h-4q-20 -29 -51 -51l-100 -82l-76 103l283 229h137l-150 -768h209l-24 -127h-574z" />
<glyph unicode="&#xbe;" horiz-adv-x="1996" d="M1520 0l43 223h-424l18 99l520 573h168l-106 -551h125l-23 -121h-127l-43 -223h-151zM1321 344h266l58 299l26 92h-6q-27 -45 -59 -80l-285 -307v-4zM410 530q-92 0 -168 34t-107 67l-31 35l101 100q8 -10 23.5 -25.5t68.5 -42t113 -26.5q78 0 136 53t58 129q0 55 -46 87 t-109 32h-64l-20 74l239 235l53 41v6q-29 -6 -61 -6h-201l-20 -109h-129l45 232h569l-18 -98l-277 -267q76 -16 135.5 -72.5t59.5 -152.5q0 -127 -101.5 -226.5t-248.5 -99.5zM614 0h-163l968 1446h162z" />
<glyph unicode="&#xbf;" horiz-adv-x="972" d="M504 836l41 200h205l-39 -200h-207zM-25 -102q0 100 45.5 183t112 139t134 106.5t122.5 111t70 125.5l16 76h193l-17 -88q-16 -78 -58 -144.5t-92 -110.5l-107 -90l-102 -84q-46 -38 -76 -89t-30 -111q0 -74 53.5 -121t143.5 -47q59 0 121.5 22.5t95.5 43.5l33 22 l88 -153l-51 -33q-33 -20 -128.5 -53t-185.5 -33q-168 0 -274.5 89t-106.5 239z" />
<glyph unicode="&#xc0;" horiz-adv-x="1480" d="M-94 0l31 160h139l712 1286h230l209 -1286h141l-33 -160h-493l30 160h154l-49 321h-512l-176 -321h155l-32 -160h-506zM549 645h407l-77 502l-5 110h-6q-14 -51 -45 -110zM858 1546l-203 260h222l159 -260h-178z" />
<glyph unicode="&#xc1;" horiz-adv-x="1480" d="M-94 0l31 160h139l712 1286h230l209 -1286h141l-33 -160h-493l30 160h154l-49 321h-512l-176 -321h155l-32 -160h-506zM549 645h407l-77 502l-5 110h-6q-14 -51 -45 -110zM793 1546l262 260h237l-303 -260h-196z" />
<glyph unicode="&#xc2;" horiz-adv-x="1480" d="M-94 0l31 160h139l712 1286h230l209 -1286h141l-33 -160h-493l30 160h154l-49 321h-512l-176 -321h155l-32 -160h-506zM549 645h407l-77 502l-5 110h-6q-14 -51 -45 -110zM625 1546l231 260h215l129 -260h-172l-74 164h-4l-139 -164h-186z" />
<glyph unicode="&#xc3;" horiz-adv-x="1480" d="M-94 0l31 160h139l712 1286h230l209 -1286h141l-33 -160h-493l30 160h154l-49 321h-512l-176 -321h155l-32 -160h-506zM549 645h407l-77 502l-5 110h-6q-14 -51 -45 -110zM588 1548q25 125 87 192.5t152 67.5q47 0 83 -21.5t53.5 -47t41 -47t50.5 -21.5q70 0 98 131h150 q-20 -123 -84 -191.5t-154 -68.5q-47 0 -83 21.5t-53.5 47t-41 47t-49.5 21.5q-74 0 -101 -131h-149z" />
<glyph unicode="&#xc4;" horiz-adv-x="1480" d="M-94 0l31 160h139l712 1286h230l209 -1286h141l-33 -160h-493l30 160h154l-49 321h-512l-176 -321h155l-32 -160h-506zM549 645h407l-77 502l-5 110h-6q-14 -51 -45 -110zM1047 1599l43 207h176l-43 -207h-176zM637 1599l41 207h178l-43 -207h-176z" />
<glyph unicode="&#xc5;" horiz-adv-x="1480" d="M-94 0l31 160h139l712 1286h230l209 -1286h141l-33 -160h-493l30 160h154l-49 321h-512l-176 -321h155l-32 -160h-506zM549 645h407l-77 502l-5 110h-6q-14 -51 -45 -110zM924 1513q-70 0 -118 38t-48 102q0 80 64.5 132t142.5 52q72 0 120 -39t48 -104 q0 -78 -64.5 -129.5t-144.5 -51.5zM930 1599q39 0 64.5 27t25.5 68q0 57 -59 57q-35 0 -63 -27.5t-28 -68.5q1 -56 60 -56z" />
<glyph unicode="&#xc6;" horiz-adv-x="1941" d="M-88 0l31 160h127l682 1128h-156l33 158h1333l-66 -336h-170l33 168h-485l-92 -465h508l-33 -168h-508l-92 -477h520l33 170h170l-66 -338h-1071l31 160h176l96 487h-371l-292 -487h153l-30 -160h-494zM670 807h307l92 471h-117z" />
<glyph unicode="&#xc7;" horiz-adv-x="1517" d="M559 -199l84 185q-242 33 -384 201.5t-142 418.5q0 354 260 609t612 255q78 0 162 -13t174 -42t141.5 -88t34.5 -141l-37 -178h-186l20 116q12 61 -43 102.5t-124.5 54.5t-143.5 13q-272 0 -465.5 -203.5t-193.5 -472.5q0 -205 118.5 -334.5t323.5 -129.5q129 0 250 44 t137 128l23 110h188l-33 -168q-18 -102 -121.5 -171.5t-219 -95.5t-232.5 -26h-12l-39 -90q59 -6 98 -43t39 -96q0 -94 -80 -142t-180 -48q-29 0 -57.5 3t-43.5 7l-14 4l23 108q37 -12 88 -12q45 0 81.5 17.5t36.5 58.5q0 59 -108 59h-35z" />
<glyph unicode="&#xc8;" horiz-adv-x="1300" d="M-6 0l31 160h180l219 1128h-182l32 158h1047l-66 -336h-178l33 168h-483l-90 -465h512l-35 -168h-510l-94 -477h518l33 174h180l-68 -342h-1079zM791 1546l-203 260h221l160 -260h-178z" />
<glyph unicode="&#xc9;" horiz-adv-x="1300" d="M725 1546l262 260h238l-303 -260h-197zM-6 0l31 160h180l219 1128h-182l32 158h1047l-66 -336h-178l33 168h-483l-90 -465h512l-35 -168h-510l-94 -477h518l33 174h180l-68 -342h-1079z" />
<glyph unicode="&#xca;" horiz-adv-x="1300" d="M557 1546l231 260h216l129 -260h-172l-74 164h-4l-140 -164h-186zM-6 0l31 160h180l219 1128h-182l32 158h1047l-66 -336h-178l33 168h-483l-90 -465h512l-35 -168h-510l-94 -477h518l33 174h180l-68 -342h-1079z" />
<glyph unicode="&#xcb;" horiz-adv-x="1300" d="M979 1599l43 207h176l-43 -207h-176zM569 1599l41 207h178l-43 -207h-176zM-6 0l31 160h180l219 1128h-182l32 158h1047l-66 -336h-178l33 168h-483l-90 -465h512l-35 -168h-510l-94 -477h518l33 174h180l-68 -342h-1079z" />
<glyph unicode="&#xcc;" horiz-adv-x="786" d="M-8 0l31 160h180l219 1128h-180l30 158h568l-31 -158h-182l-219 -1128h182l-31 -160h-567zM510 1546l-203 260h221l160 -260h-178z" />
<glyph unicode="&#xcd;" horiz-adv-x="786" d="M-8 0l31 160h180l219 1128h-180l30 158h568l-31 -158h-182l-219 -1128h182l-31 -160h-567zM444 1546l263 260h237l-303 -260h-197z" />
<glyph unicode="&#xce;" horiz-adv-x="786" d="M-8 0l31 160h180l219 1128h-180l30 158h568l-31 -158h-182l-219 -1128h182l-31 -160h-567zM276 1546l232 260h215l129 -260h-172l-74 164h-4l-139 -164h-187z" />
<glyph unicode="&#xcf;" horiz-adv-x="786" d="M-8 0l31 160h180l219 1128h-180l30 158h568l-31 -158h-182l-219 -1128h182l-31 -160h-567zM700 1599l43 207h177l-43 -207h-177zM291 1599l41 207h178l-43 -207h-176z" />
<glyph unicode="&#xd0;" horiz-adv-x="1609" d="M-8 0l31 160h180l94 479h-156l33 168h156l94 481h-182l30 158h625q301 0 471 -147.5t170 -415.5q0 -371 -241.5 -627t-612.5 -256h-692zM410 168h260q287 0 473 200.5t186 497.5q0 199 -117.5 305.5t-326.5 106.5h-258l-92 -471h315l-33 -168h-315z" />
<glyph unicode="&#xd1;" horiz-adv-x="1720" d="M-6 0l31 160h180l219 1128h-182l32 158h377l510 -1047q18 -39 29 -100h6q4 68 14 113l172 876h-184l31 158h571l-31 -158h-182l-252 -1288h-196l-512 1047q-18 41 -29 100h-6q-4 -68 -14 -113l-168 -874h184l-31 -160h-569zM719 1548q25 125 87 192.5t152 67.5 q47 0 83 -21.5t53.5 -47t41 -47t50.5 -21.5q70 0 98 131h150q-20 -123 -84 -191.5t-154 -68.5q-47 0 -83 21.5t-53.5 47t-41 47t-49.5 21.5q-74 0 -101 -131h-149z" />
<glyph unicode="&#xd2;" horiz-adv-x="1687" d="M115 606q0 229 123.5 430t325.5 317.5t427 116.5q281 0 455 -172t174 -442q0 -233 -125 -438t-326.5 -324t-425.5 -119q-279 0 -453.5 177.5t-174.5 453.5zM322 614q0 -201 121.5 -328.5t314.5 -127.5q250 0 451.5 204.5t201.5 483.5q0 195 -122 319.5t-314 124.5 q-252 0 -452.5 -201t-200.5 -475zM965 1546l-203 260h221l160 -260h-178z" />
<glyph unicode="&#xd3;" horiz-adv-x="1687" d="M899 1546l262 260h238l-303 -260h-197zM115 606q0 229 123.5 430t325.5 317.5t427 116.5q281 0 455 -172t174 -442q0 -233 -125 -438t-326.5 -324t-425.5 -119q-279 0 -453.5 177.5t-174.5 453.5zM322 614q0 -201 121.5 -328.5t314.5 -127.5q250 0 451.5 204.5 t201.5 483.5q0 195 -122 319.5t-314 124.5q-252 0 -452.5 -201t-200.5 -475z" />
<glyph unicode="&#xd4;" horiz-adv-x="1687" d="M731 1546l232 260h215l129 -260h-172l-74 164h-4l-139 -164h-187zM115 606q0 229 123.5 430t325.5 317.5t427 116.5q281 0 455 -172t174 -442q0 -233 -125 -438t-326.5 -324t-425.5 -119q-279 0 -453.5 177.5t-174.5 453.5zM322 614q0 -201 121.5 -328.5t314.5 -127.5 q250 0 451.5 204.5t201.5 483.5q0 195 -122 319.5t-314 124.5q-252 0 -452.5 -201t-200.5 -475z" />
<glyph unicode="&#xd5;" horiz-adv-x="1687" d="M115 606q0 229 123.5 430t325.5 317.5t427 116.5q281 0 455 -172t174 -442q0 -233 -125 -438t-326.5 -324t-425.5 -119q-279 0 -453.5 177.5t-174.5 453.5zM322 614q0 -201 121.5 -328.5t314.5 -127.5q250 0 451.5 204.5t201.5 483.5q0 195 -122 319.5t-314 124.5 q-252 0 -452.5 -201t-200.5 -475zM692 1548q25 125 87.5 192.5t152.5 67.5q47 0 83 -21.5t53 -47t41 -47t50 -21.5q70 0 98 131h150q-20 -123 -83.5 -191.5t-154.5 -68.5q-47 0 -82.5 21.5t-53 47t-41 47t-50.5 21.5q-74 0 -100 -131h-150z" />
<glyph unicode="&#xd6;" horiz-adv-x="1687" d="M1153 1599l43 207h176l-43 -207h-176zM743 1599l41 207h179l-43 -207h-177zM115 606q0 229 123.5 430t325.5 317.5t427 116.5q281 0 455 -172t174 -442q0 -233 -125 -438t-326.5 -324t-425.5 -119q-279 0 -453.5 177.5t-174.5 453.5zM322 614q0 -201 121.5 -328.5 t314.5 -127.5q250 0 451.5 204.5t201.5 483.5q0 195 -122 319.5t-314 124.5q-252 0 -452.5 -201t-200.5 -475z" />
<glyph unicode="&#xd7;" horiz-adv-x="1255" d="M90 113l422 471l-422 471l113 112l418 -467l419 467l113 -112l-424 -471l424 -471l-113 -113l-419 465l-418 -465z" />
<glyph unicode="&#xd8;" horiz-adv-x="1689" d="M133 25l137 149q-156 174 -155 432q0 229 122.5 430t322.5 317.5t419 116.5q223 0 385 -110l127 139l92 -78l-127 -137q166 -172 166 -428q0 -174 -73.5 -338t-193.5 -281.5t-277.5 -189.5t-319.5 -72q-229 0 -398 119l-131 -145zM416 330l809 882q-106 72 -248 72 q-254 0 -453.5 -198.5t-199.5 -471.5q0 -169 92 -284zM498 242q113 -80 262 -80q250 0 451.5 203.5t201.5 480.5q0 166 -98 284z" />
<glyph unicode="&#xd9;" horiz-adv-x="1640" d="M217 399q0 49 21 172l139 717h-180l30 158h568l-31 -158h-182l-140 -719q-18 -106 -18 -147q0 -123 81 -193.5t226 -70.5q170 0 285 92q117 98 147 268l152 770h-182l30 158h570l-31 -158h-182l-154 -786q-57 -281 -258 -420q-160 -106 -383 -107q-225 0 -366.5 113.5 t-141.5 310.5zM936 1546l-203 260h221l160 -260h-178z" />
<glyph unicode="&#xda;" horiz-adv-x="1640" d="M870 1546l263 260h237l-303 -260h-197zM217 399q0 49 21 172l139 717h-180l30 158h568l-31 -158h-182l-140 -719q-18 -106 -18 -147q0 -123 81 -193.5t226 -70.5q170 0 285 92q117 98 147 268l152 770h-182l30 158h570l-31 -158h-182l-154 -786q-57 -281 -258 -420 q-160 -106 -383 -107q-225 0 -366.5 113.5t-141.5 310.5z" />
<glyph unicode="&#xdb;" horiz-adv-x="1640" d="M702 1546l232 260h215l129 -260h-172l-74 164h-4l-139 -164h-187zM217 399q0 49 21 172l139 717h-180l30 158h568l-31 -158h-182l-140 -719q-18 -106 -18 -147q0 -123 81 -193.5t226 -70.5q170 0 285 92q117 98 147 268l152 770h-182l30 158h570l-31 -158h-182l-154 -786 q-57 -281 -258 -420q-160 -106 -383 -107q-225 0 -366.5 113.5t-141.5 310.5z" />
<glyph unicode="&#xdc;" horiz-adv-x="1640" d="M1126 1599l43 207h177l-43 -207h-177zM717 1599l41 207h178l-43 -207h-176zM217 399q0 49 21 172l139 717h-180l30 158h568l-31 -158h-182l-140 -719q-18 -106 -18 -147q0 -123 81 -193.5t226 -70.5q170 0 285 92q117 98 147 268l152 770h-182l30 158h570l-31 -158h-182 l-154 -786q-57 -281 -258 -420q-160 -106 -383 -107q-225 0 -366.5 113.5t-141.5 310.5z" />
<glyph unicode="&#xdd;" horiz-adv-x="1335" d="M264 0l31 160h182l88 452l-274 676h-137l30 158h490l-31 -158h-151l178 -454l18 -62h4q18 31 41 62l359 454h-150l31 158h502l-31 -158h-137l-537 -676l-88 -452h180l-31 -160h-567zM723 1546l262 260h238l-303 -260h-197z" />
<glyph unicode="&#xde;" horiz-adv-x="1339" d="M-6 0l31 160h180l219 1128h-182l32 158h568l-31 -158h-186l-29 -147h334q176 0 278.5 -90t102.5 -244q0 -207 -150.5 -335t-367.5 -128h-351l-36 -184h184l-31 -160h-565zM473 504h299q143 0 236.5 80t93.5 219q0 178 -234 178h-303z" />
<glyph unicode="&#xdf;" horiz-adv-x="1224" d="M59 0l213 1102q33 172 173.5 270t308.5 98q164 0 263 -80.5t99 -207.5q0 -68 -29.5 -125.5t-70.5 -96t-83 -72.5t-72 -70t-30 -73q0 -41 44.5 -89t96.5 -87t96 -104.5t44 -136.5q0 -141 -117.5 -241.5t-271.5 -100.5q-86 0 -162 14t-108 29l-33 16l35 172 q100 -59 254 -59q76 0 139 44t63 126q0 51 -45 103t-98 90t-98 95.5t-45 116.5q0 70 45 132.5t99 102.5t99 92t45 103q0 57 -43 96t-125 39q-98 0 -178 -59t-102 -168l-209 -1071h-197z" />
<glyph unicode="&#xe0;" horiz-adv-x="1140" d="M0 238q0 115 67.5 198.5t178 124.5t221.5 58.5t229 17.5h52q14 70 14 102q0 158 -189 158q-72 0 -149.5 -24.5t-118.5 -49.5l-41 -24l-51 153q20 12 55 30.5t138.5 48.5t201.5 30q156 0 254.5 -73t98.5 -224q0 -63 -47.5 -273t-47.5 -251q0 -90 95 -90l47 4l-29 -154 q-37 -4 -94 -4q-211 0 -213 188h-4q2 0 -14.5 -21.5t-48.5 -52t-74 -61.5t-103 -52.5t-127 -21.5q-129 0 -215 69t-86 194zM199 270q0 -63 41 -102t120 -39q119 0 219.5 106.5t133.5 231.5l10 41h-53q-55 0 -106.5 -3t-121 -17.5t-121 -39t-87 -71t-35.5 -107.5zM590 1186 l-203 260h221l160 -260h-178z" />
<glyph unicode="&#xe1;" horiz-adv-x="1140" d="M0 238q0 115 67.5 198.5t178 124.5t221.5 58.5t229 17.5h52q14 70 14 102q0 158 -189 158q-72 0 -149.5 -24.5t-118.5 -49.5l-41 -24l-51 153q20 12 55 30.5t138.5 48.5t201.5 30q156 0 254.5 -73t98.5 -224q0 -63 -47.5 -273t-47.5 -251q0 -90 95 -90l47 4l-29 -154 q-37 -4 -94 -4q-211 0 -213 188h-4q2 0 -14.5 -21.5t-48.5 -52t-74 -61.5t-103 -52.5t-127 -21.5q-129 0 -215 69t-86 194zM199 270q0 -63 41 -102t120 -39q119 0 219.5 106.5t133.5 231.5l10 41h-53q-55 0 -106.5 -3t-121 -17.5t-121 -39t-87 -71t-35.5 -107.5zM524 1186 l262 260h238l-303 -260h-197z" />
<glyph unicode="&#xe2;" horiz-adv-x="1140" d="M0 238q0 115 67.5 198.5t178 124.5t221.5 58.5t229 17.5h52q14 70 14 102q0 158 -189 158q-72 0 -149.5 -24.5t-118.5 -49.5l-41 -24l-51 153q20 12 55 30.5t138.5 48.5t201.5 30q156 0 254.5 -73t98.5 -224q0 -63 -47.5 -273t-47.5 -251q0 -90 95 -90l47 4l-29 -154 q-37 -4 -94 -4q-211 0 -213 188h-4q2 0 -14.5 -21.5t-48.5 -52t-74 -61.5t-103 -52.5t-127 -21.5q-129 0 -215 69t-86 194zM199 270q0 -63 41 -102t120 -39q119 0 219.5 106.5t133.5 231.5l10 41h-53q-55 0 -106.5 -3t-121 -17.5t-121 -39t-87 -71t-35.5 -107.5zM356 1186 l232 260h215l129 -260h-172l-74 164h-4l-139 -164h-187z" />
<glyph unicode="&#xe3;" horiz-adv-x="1140" d="M0 238q0 115 67.5 198.5t178 124.5t221.5 58.5t229 17.5h52q14 70 14 102q0 158 -189 158q-72 0 -149.5 -24.5t-118.5 -49.5l-41 -24l-51 153q20 12 55 30.5t138.5 48.5t201.5 30q156 0 254.5 -73t98.5 -224q0 -63 -47.5 -273t-47.5 -251q0 -90 95 -90l47 4l-29 -154 q-37 -4 -94 -4q-211 0 -213 188h-4q2 0 -14.5 -21.5t-48.5 -52t-74 -61.5t-103 -52.5t-127 -21.5q-129 0 -215 69t-86 194zM199 270q0 -63 41 -102t120 -39q119 0 219.5 106.5t133.5 231.5l10 41h-53q-55 0 -106.5 -3t-121 -17.5t-121 -39t-87 -71t-35.5 -107.5zM317 1188 q25 125 87.5 192.5t152.5 67.5q47 0 83 -21.5t53.5 -47t41 -47t49.5 -21.5q70 0 99 131h149q-20 -123 -83.5 -191.5t-153.5 -68.5q-47 0 -83 21.5t-53.5 47t-41 47t-50.5 21.5q-74 0 -100 -131h-150z" />
<glyph unicode="&#xe4;" horiz-adv-x="1140" d="M0 238q0 115 67.5 198.5t178 124.5t221.5 58.5t229 17.5h52q14 70 14 102q0 158 -189 158q-72 0 -149.5 -24.5t-118.5 -49.5l-41 -24l-51 153q20 12 55 30.5t138.5 48.5t201.5 30q156 0 254.5 -73t98.5 -224q0 -63 -47.5 -273t-47.5 -251q0 -90 95 -90l47 4l-29 -154 q-37 -4 -94 -4q-211 0 -213 188h-4q2 0 -14.5 -21.5t-48.5 -52t-74 -61.5t-103 -52.5t-127 -21.5q-129 0 -215 69t-86 194zM199 270q0 -63 41 -102t120 -39q119 0 219.5 106.5t133.5 231.5l10 41h-53q-55 0 -106.5 -3t-121 -17.5t-121 -39t-87 -71t-35.5 -107.5zM778 1239 l43 207h176l-43 -207h-176zM369 1239l41 207h178l-43 -207h-176z" />
<glyph unicode="&#xe5;" horiz-adv-x="1140" d="M0 238q0 115 67.5 198.5t178 124.5t221.5 58.5t229 17.5h52q14 70 14 102q0 158 -189 158q-72 0 -149.5 -24.5t-118.5 -49.5l-41 -24l-51 153q20 12 55 30.5t138.5 48.5t201.5 30q156 0 254.5 -73t98.5 -224q0 -63 -47.5 -273t-47.5 -251q0 -90 95 -90l47 4l-29 -154 q-37 -4 -94 -4q-211 0 -213 188h-4q2 0 -14.5 -21.5t-48.5 -52t-74 -61.5t-103 -52.5t-127 -21.5q-129 0 -215 69t-86 194zM199 270q0 -63 41 -102t120 -39q119 0 219.5 106.5t133.5 231.5l10 41h-53q-55 0 -106.5 -3t-121 -17.5t-121 -39t-87 -71t-35.5 -107.5zM655 1153 q-70 0 -118 38t-48 101q0 80 64.5 132.5t142.5 52.5q72 0 120 -39t48 -105q0 -78 -64.5 -129t-144.5 -51zM662 1239q39 0 64.5 26.5t25.5 67.5q0 57 -60 58q-35 0 -62.5 -28t-27.5 -69q1 -55 60 -55z" />
<glyph unicode="&#xe6;" horiz-adv-x="1767" d="M4 248q0 94 44 165.5t110.5 111.5t158 64.5t170 33t162.5 8.5h94q12 82 13 102q0 164 -197 164q-160 -2 -301 -98l-53 153q20 12 54 30.5t135.5 48.5t195.5 30q246 0 311 -174h4q154 174 385 174q195 0 296.5 -103.5t101.5 -281.5q0 -35 -8.5 -78t-16.5 -70l-6 -26h-746 q-8 -35 -8 -74q0 -131 75 -208t212 -77q80 0 162 30t123 60l43 29l57 -151l-55 -37t-138.5 -61t-201.5 -38q-160 0 -271.5 69t-154.5 187h-4q-12 -27 -40 -62.5t-78 -82.5t-131 -79t-175 -32q-135 0 -228.5 74t-93.5 199zM944 631h541q4 37 4 65q0 100 -56.5 153.5 t-144.5 53.5q-117 0 -208 -70.5t-136 -201.5zM207 270q0 -59 43 -97t123 -38q119 0 215 102.5t123 227.5l8 37h-96q-68 0 -128.5 -8.5t-131 -30t-113.5 -70.5t-43 -123z" />
<glyph unicode="&#xe7;" horiz-adv-x="1142" d="M346 -199l86 187q-174 31 -274.5 148.5t-100.5 293.5q0 254 194.5 442.5t465.5 188.5q145 0 266 -60.5t98 -183.5l-22 -119h-176l12 70q12 57 -51.5 89t-147.5 32q-170 0 -303 -133t-133 -312q0 -135 83 -216t228 -81q90 0 179.5 34t132.5 69l43 33l57 -154 q-6 -6 -18.5 -16.5t-54.5 -37t-88 -47t-119.5 -37t-149.5 -16.5h-16l-37 -90q59 -6 98 -43t39 -96q0 -94 -80 -142t-180 -48q-29 0 -57.5 3t-43.5 7l-14 4l21 108q37 -12 88 -12q119 0 118 76q0 59 -106 59h-37z" />
<glyph unicode="&#xe8;" horiz-adv-x="1138" d="M61 418q0 262 174.5 452.5t430.5 190.5q193 0 293 -104.5t100 -278.5l-33 -178h-754q-8 -35 -8 -74q0 -123 78 -201t217 -78q80 0 163 30t126 61l43 28l55 -155l-55 -37q-35 -23 -139.5 -61t-202.5 -38q-223 0 -355.5 123t-132.5 320zM301 627h553q6 35 6 67 q0 102 -54 155.5t-147 53.5q-117 0 -214 -73.5t-144 -202.5zM655 1186l-202 260h221l160 -260h-179z" />
<glyph unicode="&#xe9;" horiz-adv-x="1138" d="M590 1186l262 260h238l-304 -260h-196zM61 418q0 262 174.5 452.5t430.5 190.5q193 0 293 -104.5t100 -278.5l-33 -178h-754q-8 -35 -8 -74q0 -123 78 -201t217 -78q80 0 163 30t126 61l43 28l55 -155l-55 -37q-35 -23 -139.5 -61t-202.5 -38q-223 0 -355.5 123 t-132.5 320zM301 627h553q6 35 6 67q0 102 -54 155.5t-147 53.5q-117 0 -214 -73.5t-144 -202.5z" />
<glyph unicode="&#xea;" horiz-adv-x="1138" d="M422 1186l231 260h215l129 -260h-172l-73 164h-4l-140 -164h-186zM61 418q0 262 174.5 452.5t430.5 190.5q193 0 293 -104.5t100 -278.5l-33 -178h-754q-8 -35 -8 -74q0 -123 78 -201t217 -78q80 0 163 30t126 61l43 28l55 -155l-55 -37q-35 -23 -139.5 -61t-202.5 -38 q-223 0 -355.5 123t-132.5 320zM301 627h553q6 35 6 67q0 102 -54 155.5t-147 53.5q-117 0 -214 -73.5t-144 -202.5z" />
<glyph unicode="&#xeb;" horiz-adv-x="1138" d="M844 1239l43 207h176l-43 -207h-176zM434 1239l41 207h178l-43 -207h-176zM61 418q0 262 174.5 452.5t430.5 190.5q193 0 293 -104.5t100 -278.5l-33 -178h-754q-8 -35 -8 -74q0 -123 78 -201t217 -78q80 0 163 30t126 61l43 28l55 -155l-55 -37q-35 -23 -139.5 -61 t-202.5 -38q-223 0 -355.5 123t-132.5 320zM301 627h553q6 35 6 67q0 102 -54 155.5t-147 53.5q-117 0 -214 -73.5t-144 -202.5z" />
<glyph unicode="&#xec;" horiz-adv-x="653" d="M150 195q0 33 10 90l119 598h-175l31 153h371l-144 -733q-8 -45 -8 -63q0 -90 95 -90l47 4l-29 -154q-47 -4 -82 -4q-47 0 -82 6t-72.5 24.5t-59 60.5t-21.5 108zM373 1186l-203 260h221l160 -260h-178z" />
<glyph unicode="&#xed;" horiz-adv-x="653" d="M307 1186l262 260h238l-303 -260h-197zM150 195q0 33 10 90l119 598h-175l31 153h371l-144 -733q-8 -45 -8 -63q0 -90 95 -90l47 4l-29 -154q-47 -4 -82 -4q-47 0 -82 6t-72.5 24.5t-59 60.5t-21.5 108z" />
<glyph unicode="&#xee;" horiz-adv-x="653" d="M139 1186l232 260h215l129 -260h-172l-74 164h-4l-139 -164h-187zM150 195q0 33 10 90l119 598h-175l31 153h371l-144 -733q-8 -45 -8 -63q0 -90 95 -90l47 4l-29 -154q-47 -4 -82 -4q-47 0 -82 6t-72.5 24.5t-59 60.5t-21.5 108z" />
<glyph unicode="&#xef;" horiz-adv-x="653" d="M150 195q0 33 10 90l119 598h-175l31 153h371l-144 -733q-8 -45 -8 -63q0 -90 95 -90l47 4l-29 -154q-47 -4 -82 -4q-47 0 -82 6t-72.5 24.5t-59 60.5t-21.5 108zM535 1239l43 207h176l-41 -207h-178zM180 1239l43 207h176l-43 -207h-176z" />
<glyph unicode="&#xf0;" horiz-adv-x="1218" d="M55 391q0 217 161 390t417 173q158 0 248 -90l4 -4h4q-33 174 -180 291l-398 -160l2 111l291 119q-123 70 -256 104l82 148q229 -61 381 -173l317 127v-110l-229 -92q205 -205 205 -506q0 -115 -36 -238t-105.5 -239.5t-193.5 -191.5t-280 -75q-209 0 -321.5 119 t-112.5 297zM258 395q0 -109 59.5 -178.5t174.5 -69.5q166 0 278.5 141.5t112.5 295.5q0 94 -65.5 152.5t-178.5 58.5q-162 0 -271.5 -119t-109.5 -281z" />
<glyph unicode="&#xf1;" horiz-adv-x="1376" d="M117 0l164 838q6 45 -37 45h-129l30 153h236q111 0 111 -88q0 -66 -31 -139h4q37 76 154.5 164t283.5 88q135 0 211 -70.5t76 -202.5q0 -70 -45 -292t-45 -256q0 -53 23.5 -71.5t68.5 -18.5l49 4l-31 -154q-41 -4 -88 -4q-227 0 -227 194q0 49 44 268.5t44 270.5 q0 150 -156 150q-150 0 -269.5 -122t-151.5 -292l-91 -465h-198zM498 1188q25 125 87 192.5t152 67.5q47 0 83 -21.5t53.5 -47t41 -47t50.5 -21.5q70 0 98 131h149q-20 -123 -83.5 -191.5t-153.5 -68.5q-47 0 -83 21.5t-53.5 47t-41 47t-49.5 21.5q-74 0 -101 -131h-149z " />
<glyph unicode="&#xf2;" horiz-adv-x="1284" d="M59 432q0 262 197 445.5t457 183.5q211 0 344 -126t133 -327q0 -264 -197.5 -448.5t-455.5 -184.5q-211 0 -344.5 127t-133.5 330zM262 440q0 -131 81 -212t210 -81q166 0 300 132.5t134 318.5q0 129 -81 210t-210 81q-168 0 -301 -131.5t-133 -317.5zM694 1186l-202 260 h221l159 -260h-178z" />
<glyph unicode="&#xf3;" horiz-adv-x="1284" d="M629 1186l262 260h237l-303 -260h-196zM59 432q0 262 197 445.5t457 183.5q211 0 344 -126t133 -327q0 -264 -197.5 -448.5t-455.5 -184.5q-211 0 -344.5 127t-133.5 330zM262 440q0 -131 81 -212t210 -81q166 0 300 132.5t134 318.5q0 129 -81 210t-210 81 q-168 0 -301 -131.5t-133 -317.5z" />
<glyph unicode="&#xf4;" horiz-adv-x="1284" d="M461 1186l231 260h215l129 -260h-172l-73 164h-5l-139 -164h-186zM59 432q0 262 197 445.5t457 183.5q211 0 344 -126t133 -327q0 -264 -197.5 -448.5t-455.5 -184.5q-211 0 -344.5 127t-133.5 330zM262 440q0 -131 81 -212t210 -81q166 0 300 132.5t134 318.5 q0 129 -81 210t-210 81q-168 0 -301 -131.5t-133 -317.5z" />
<glyph unicode="&#xf5;" horiz-adv-x="1284" d="M59 432q0 262 197 445.5t457 183.5q211 0 344 -126t133 -327q0 -264 -197.5 -448.5t-455.5 -184.5q-211 0 -344.5 127t-133.5 330zM262 440q0 -131 81 -212t210 -81q166 0 300 132.5t134 318.5q0 129 -81 210t-210 81q-168 0 -301 -131.5t-133 -317.5zM422 1188 q25 125 87 192.5t153 67.5q47 0 82.5 -21.5t53 -47t41 -47t50.5 -21.5q70 0 98 131h150q-20 -123 -84 -191.5t-154 -68.5q-47 0 -83 21.5t-53.5 47t-41 47t-49.5 21.5q-74 0 -101 -131h-149z" />
<glyph unicode="&#xf6;" horiz-adv-x="1284" d="M883 1239l43 207h176l-43 -207h-176zM473 1239l41 207h178l-43 -207h-176zM59 432q0 262 197 445.5t457 183.5q211 0 344 -126t133 -327q0 -264 -197.5 -448.5t-455.5 -184.5q-211 0 -344.5 127t-133.5 330zM262 440q0 -131 81 -212t210 -81q166 0 300 132.5t134 318.5 q0 129 -81 210t-210 81q-168 0 -301 -131.5t-133 -317.5z" />
<glyph unicode="&#xf7;" horiz-adv-x="1255" d="M524 891v186h193v-186h-193zM102 504v160h1037v-160h-1037zM524 90v186h193v-186h-193z" />
<glyph unicode="&#xf8;" horiz-adv-x="1286" d="M82 -4l104 115q-127 133 -127 321q0 260 195 444.5t444 184.5q166 0 293 -78l111 119l80 -70l-111 -119q119 -129 119 -305q0 -264 -195.5 -448.5t-443.5 -184.5q-156 0 -279 70l-110 -119zM324 258l536 584q-70 47 -164 47q-168 0 -301 -131t-133 -318q1 -104 62 -182z M403 186q72 -39 150 -39q166 0 300 132.5t134 318.5q0 86 -55 164z" />
<glyph unicode="&#xf9;" horiz-adv-x="1363" d="M152 248q0 66 14 131l96 504h-172l31 153h371l-119 -616q-16 -70 -17 -119q0 -145 156 -145q147 0 265 126t147 283l61 318h-172l31 153h370l-143 -733q-6 -33 -6 -63q0 -90 92 -90l49 4l-30 -154q-45 -4 -95 -4q-109 0 -163 56.5t-44 170.5h-4q-63 -98 -171.5 -173 t-256.5 -75q-127 0 -208.5 68t-81.5 205zM686 1186l-203 260h222l159 -260h-178z" />
<glyph unicode="&#xfa;" horiz-adv-x="1363" d="M621 1186l262 260h237l-303 -260h-196zM152 248q0 66 14 131l96 504h-172l31 153h371l-119 -616q-16 -70 -17 -119q0 -145 156 -145q147 0 265 126t147 283l61 318h-172l31 153h370l-143 -733q-6 -33 -6 -63q0 -90 92 -90l49 4l-30 -154q-45 -4 -95 -4q-109 0 -163 56.5 t-44 170.5h-4q-63 -98 -171.5 -173t-256.5 -75q-127 0 -208.5 68t-81.5 205z" />
<glyph unicode="&#xfb;" horiz-adv-x="1363" d="M453 1186l231 260h215l129 -260h-172l-74 164h-4l-139 -164h-186zM152 248q0 66 14 131l96 504h-172l31 153h371l-119 -616q-16 -70 -17 -119q0 -145 156 -145q147 0 265 126t147 283l61 318h-172l31 153h370l-143 -733q-6 -33 -6 -63q0 -90 92 -90l49 4l-30 -154 q-45 -4 -95 -4q-109 0 -163 56.5t-44 170.5h-4q-63 -98 -171.5 -173t-256.5 -75q-127 0 -208.5 68t-81.5 205z" />
<glyph unicode="&#xfc;" horiz-adv-x="1363" d="M877 1239l43 207h176l-43 -207h-176zM467 1239l41 207h178l-43 -207h-176zM152 248q0 66 14 131l96 504h-172l31 153h371l-119 -616q-16 -70 -17 -119q0 -145 156 -145q147 0 265 126t147 283l61 318h-172l31 153h370l-143 -733q-6 -33 -6 -63q0 -90 92 -90l49 4 l-30 -154q-45 -4 -95 -4q-109 0 -163 56.5t-44 170.5h-4q-63 -98 -171.5 -173t-256.5 -75q-127 0 -208.5 68t-81.5 205z" />
<glyph unicode="&#xfd;" horiz-adv-x="1212" d="M-31 -219q49 -45 137 -45q129 0 220 143l61 103l-186 901h-131l30 153h465l-28 -153h-138l111 -617q4 -20 4 -42.5t-2 -35.5v-12h6q16 45 43 90l348 617h-133l31 153h465l-31 -153h-127l-616 -1047q-156 -266 -396 -266q-143 0 -225 68zM592 1186l262 260h238l-304 -260 h-196z" />
<glyph unicode="&#xfe;" horiz-adv-x="1257" d="M-20 -410l329 1702h-168l29 154h367l-95 -481l-20 -82h4q55 78 145.5 128t198.5 50q184 0 286.5 -115t102.5 -311q0 -285 -170 -472.5t-393 -187.5q-102 0 -187 46.5t-122 134.5h-4q-4 -43 -15 -97l-92 -469h-196zM344 414q0 -117 58.5 -192t172.5 -75q145 0 263 131.5 t118 342.5q0 125 -62.5 195.5t-170.5 70.5q-156 0 -267.5 -143.5t-111.5 -329.5z" />
<glyph unicode="&#xff;" horiz-adv-x="1212" d="M-31 -219q49 -45 137 -45q129 0 220 143l61 103l-186 901h-131l30 153h465l-28 -153h-138l111 -617q4 -20 4 -42.5t-2 -35.5v-12h6q16 45 43 90l348 617h-133l31 153h465l-31 -153h-127l-616 -1047q-156 -266 -396 -266q-143 0 -225 68zM846 1239l43 207h176l-43 -207 h-176zM436 1239l41 207h178l-43 -207h-176z" />
<glyph unicode="&#x100;" horiz-adv-x="1480" d="M-94 0l31 160h139l712 1286h230l209 -1286h141l-33 -160h-493l30 160h154l-49 321h-512l-176 -321h155l-32 -160h-506zM549 645h407l-77 502l-5 110h-6q-14 -51 -45 -110zM672 1606l26 145h521l-27 -145h-520z" />
<glyph unicode="&#x101;" horiz-adv-x="1140" d="M0 238q0 115 67.5 198.5t178 124.5t221.5 58.5t229 17.5h52q14 70 14 102q0 158 -189 158q-72 0 -149.5 -24.5t-118.5 -49.5l-41 -24l-51 153q20 12 55 30.5t138.5 48.5t201.5 30q156 0 254.5 -73t98.5 -224q0 -63 -47.5 -273t-47.5 -251q0 -90 95 -90l47 4l-29 -154 q-37 -4 -94 -4q-211 0 -213 188h-4q2 0 -14.5 -21.5t-48.5 -52t-74 -61.5t-103 -52.5t-127 -21.5q-129 0 -215 69t-86 194zM199 270q0 -63 41 -102t120 -39q119 0 219.5 106.5t133.5 231.5l10 41h-53q-55 0 -106.5 -3t-121 -17.5t-121 -39t-87 -71t-35.5 -107.5zM403 1245 l27 146h520l-26 -146h-521z" />
<glyph unicode="&#x102;" horiz-adv-x="1480" d="M-94 0l31 160h139l712 1286h230l209 -1286h141l-33 -160h-493l30 160h154l-49 321h-512l-176 -321h155l-32 -160h-506zM549 645h407l-77 502l-5 110h-6q-14 -51 -45 -110zM936 1538q-117 0 -190.5 66.5t-51.5 173.5l6 28h150l-4 -26q-12 -61 16.5 -92t79.5 -31t93 31.5 t55 93.5l4 24h151l-6 -28q-23 -119 -105.5 -179.5t-197.5 -60.5z" />
<glyph unicode="&#x103;" horiz-adv-x="1140" d="M0 238q0 115 67.5 198.5t178 124.5t221.5 58.5t229 17.5h52q14 70 14 102q0 158 -189 158q-72 0 -149.5 -24.5t-118.5 -49.5l-41 -24l-51 153q20 12 55 30.5t138.5 48.5t201.5 30q156 0 254.5 -73t98.5 -224q0 -63 -47.5 -273t-47.5 -251q0 -90 95 -90l47 4l-29 -154 q-37 -4 -94 -4q-211 0 -213 188h-4q2 0 -14.5 -21.5t-48.5 -52t-74 -61.5t-103 -52.5t-127 -21.5q-129 0 -215 69t-86 194zM199 270q0 -63 41 -102t120 -39q119 0 219.5 106.5t133.5 231.5l10 41h-53q-55 0 -106.5 -3t-121 -17.5t-121 -39t-87 -71t-35.5 -107.5zM666 1178 q-117 0 -191 66.5t-51 172.5l6 29h150l-5 -27q-12 -61 17 -92t80 -31t93 32t54 93l4 25h152l-6 -29q-23 -119 -105.5 -179t-197.5 -60z" />
<glyph unicode="&#x104;" horiz-adv-x="1480" d="M950 -274q0 150 187 274h-295l30 160h154l-49 321h-512l-176 -321h155l-32 -160h-506l31 160h139l712 1286h230l209 -1286h141l-33 -160h-8q-39 0 -125 -82t-86 -147q0 -76 113 -82l-64 -140q-45 6 -89 20.5t-85 57t-41 99.5zM549 645h407l-77 502l-5 110h-6 q-14 -51 -45 -110z" />
<glyph unicode="&#x105;" horiz-adv-x="1140" d="M594 -274q0 154 194 278q-119 33 -116 180h-4q2 0 -14.5 -21.5t-48.5 -52t-74 -61.5t-103 -52.5t-127 -21.5q-129 0 -215 69t-86 194q0 115 67.5 198.5t178 124.5t221.5 58.5t229 17.5h52q14 70 14 102q0 158 -189 158q-72 0 -149.5 -24.5t-118.5 -49.5l-41 -24l-51 153 q20 12 55 30.5t138.5 48.5t201.5 30q156 0 254.5 -73t98.5 -224q0 -63 -47.5 -273t-47.5 -251q0 -90 95 -90l47 4l-29 -154q-10 0 -23 -2q-51 -14 -123.5 -89t-72.5 -138q0 -43 35.5 -61.5t74.5 -20.5l-63 -140q-45 6 -88 20.5t-84 57t-41 99.5zM199 270q0 -63 41 -102 t120 -39q119 0 219.5 106.5t133.5 231.5l10 41h-53q-55 0 -106.5 -3t-121 -17.5t-121 -39t-87 -71t-35.5 -107.5z" />
<glyph unicode="&#x106;" horiz-adv-x="1517" d="M870 1546l263 260h237l-303 -260h-197zM117 606q0 354 260 609t612 255q78 0 162 -13t174 -42t141.5 -88t34.5 -141l-37 -178h-186l20 116q12 61 -43 102.5t-124.5 54.5t-143.5 13q-272 0 -465.5 -203.5t-193.5 -472.5q0 -205 118.5 -334.5t323.5 -129.5q129 0 250 44 t137 128l23 110h188l-33 -168q-18 -102 -121.5 -171.5t-219 -95.5t-232.5 -26q-291 0 -468 175t-177 456z" />
<glyph unicode="&#x107;" horiz-adv-x="1140" d="M594 1186l262 260h238l-303 -260h-197zM57 430q0 254 193.5 442.5t466.5 188.5q86 0 170 -20.5t146.5 -79t47.5 -144.5l-24 -119h-176l14 70q10 57 -52.5 89t-146.5 32q-170 0 -303 -133t-133 -312q0 -135 83 -216t226 -81q92 0 180.5 34t131.5 69l43 33l57 -154 q-6 -6 -18.5 -16.5t-54.5 -37t-88 -47t-119.5 -37t-149.5 -16.5q-225 0 -359.5 125t-134.5 330z" />
<glyph unicode="&#x108;" horiz-adv-x="1517" d="M702 1546l232 260h215l129 -260h-172l-74 164h-4l-139 -164h-187zM117 606q0 354 260 609t612 255q78 0 162 -13t174 -42t141.5 -88t34.5 -141l-37 -178h-186l20 116q12 61 -43 102.5t-124.5 54.5t-143.5 13q-272 0 -465.5 -203.5t-193.5 -472.5q0 -205 118.5 -334.5 t323.5 -129.5q129 0 250 44t137 128l23 110h188l-33 -168q-18 -102 -121.5 -171.5t-219 -95.5t-232.5 -26q-291 0 -468 175t-177 456z" />
<glyph unicode="&#x109;" horiz-adv-x="1140" d="M426 1186l231 260h215l129 -260h-172l-73 164h-4l-140 -164h-186zM57 430q0 254 193.5 442.5t466.5 188.5q86 0 170 -20.5t146.5 -79t47.5 -144.5l-24 -119h-176l14 70q10 57 -52.5 89t-146.5 32q-170 0 -303 -133t-133 -312q0 -135 83 -216t226 -81q92 0 180.5 34 t131.5 69l43 33l57 -154q-6 -6 -18.5 -16.5t-54.5 -37t-88 -47t-119.5 -37t-149.5 -16.5q-225 0 -359.5 125t-134.5 330z" />
<glyph unicode="&#x10a;" horiz-adv-x="1517" d="M117 606q0 354 260 609t612 255q78 0 162 -13t174 -42t141.5 -88t34.5 -141l-37 -178h-186l20 116q12 61 -43 102.5t-124.5 54.5t-143.5 13q-272 0 -465.5 -203.5t-193.5 -472.5q0 -205 118.5 -334.5t323.5 -129.5q129 0 250 44t137 128l23 110h188l-33 -168 q-18 -102 -121.5 -171.5t-219 -95.5t-232.5 -26q-291 0 -468 175t-177 456zM918 1606l38 200h189l-41 -200h-186z" />
<glyph unicode="&#x10b;" horiz-adv-x="1140" d="M57 430q0 254 193.5 442.5t466.5 188.5q86 0 170 -20.5t146.5 -79t47.5 -144.5l-24 -119h-176l14 70q10 57 -52.5 89t-146.5 32q-170 0 -303 -133t-133 -312q0 -135 83 -216t226 -81q92 0 180.5 34t131.5 69l43 33l57 -154q-6 -6 -18.5 -16.5t-54.5 -37t-88 -47 t-119.5 -37t-149.5 -16.5q-225 0 -359.5 125t-134.5 330zM641 1245l39 201h188l-41 -201h-186z" />
<glyph unicode="&#x10c;" horiz-adv-x="1517" d="M897 1546l-127 260h170l74 -166h4l141 166h187l-232 -260h-217zM117 606q0 354 260 609t612 255q78 0 162 -13t174 -42t141.5 -88t34.5 -141l-37 -178h-186l20 116q12 61 -43 102.5t-124.5 54.5t-143.5 13q-272 0 -465.5 -203.5t-193.5 -472.5q0 -205 118.5 -334.5 t323.5 -129.5q129 0 250 44t137 128l23 110h188l-33 -168q-18 -102 -121.5 -171.5t-219 -95.5t-232.5 -26q-291 0 -468 175t-177 456z" />
<glyph unicode="&#x10d;" horiz-adv-x="1140" d="M621 1186l-127 260h170l73 -166h4l142 166h186l-231 -260h-217zM57 430q0 254 193.5 442.5t466.5 188.5q86 0 170 -20.5t146.5 -79t47.5 -144.5l-24 -119h-176l14 70q10 57 -52.5 89t-146.5 32q-170 0 -303 -133t-133 -312q0 -135 83 -216t226 -81q92 0 180.5 34 t131.5 69l43 33l57 -154q-6 -6 -18.5 -16.5t-54.5 -37t-88 -47t-119.5 -37t-149.5 -16.5q-225 0 -359.5 125t-134.5 330z" />
<glyph unicode="&#x10e;" horiz-adv-x="1599" d="M827 1546l-127 260h170l74 -166h4l142 166h186l-232 -260h-217zM-8 0l31 160h180l219 1128h-180l30 158h598q186 0 326 -47q332 -127 332 -527q0 -256 -135.5 -478t-356.5 -320q-162 -74 -381 -74h-663zM408 168h235q180 0 318 65q162 84 260 254t98 369q0 289 -215 381 q-92 41 -246 41h-233z" />
<glyph unicode="&#x10f;" horiz-adv-x="1310" d="M1376 1446h174q4 -20 4 -41q0 -96 -58 -176t-153 -125l-71 74q111 86 110 202q0 33 -6 66zM61 399q0 287 170 474.5t402 187.5q104 0 186 -44t115 -134h4q2 39 10 75l64 334h-172l30 154h371l-221 -1143q-8 -45 -8 -63q0 -90 94 -90l47 4l-29 -154q-45 -4 -86 -4 q-106 0 -163.5 44t-55.5 142h-4q-55 -88 -154.5 -147.5t-209.5 -59.5q-184 0 -287 113.5t-103 310.5zM264 414q0 -125 62.5 -196t171.5 -71q158 0 268.5 146.5t110.5 331.5q0 115 -58.5 188.5t-173.5 73.5q-145 0 -263 -131t-118 -342z" />
<glyph unicode="&#x110;" horiz-adv-x="1609" d="M-8 0l31 160h180l94 479h-156l33 168h156l94 481h-182l30 158h625q301 0 471 -147.5t170 -415.5q0 -371 -241.5 -627t-612.5 -256h-692zM410 168h260q287 0 473 200.5t186 497.5q0 199 -117.5 305.5t-326.5 106.5h-258l-92 -471h315l-33 -168h-315z" />
<glyph unicode="&#x111;" horiz-adv-x="1310" d="M61 399q0 287 170 474.5t402 187.5q104 0 186 -44t115 -134h4q2 39 10 75l39 199h-309l24 129h310l30 160h199l-31 -160h156l-27 -129h-153l-166 -854q-8 -45 -8 -63q0 -90 94 -90l47 4l-29 -154q-45 -4 -86 -4q-106 0 -163.5 44t-55.5 142h-4q-55 -88 -154.5 -147.5 t-209.5 -59.5q-184 0 -287 113.5t-103 310.5zM264 414q0 -125 62.5 -196t171.5 -71q158 0 268.5 146.5t110.5 331.5q0 115 -58.5 188.5t-173.5 73.5q-145 0 -263 -131t-118 -342z" />
<glyph unicode="&#x112;" horiz-adv-x="1300" d="M-6 0l31 160h180l219 1128h-182l32 158h1047l-66 -336h-178l33 168h-483l-90 -465h512l-35 -168h-510l-94 -477h518l33 174h180l-68 -342h-1079zM604 1606l27 145h520l-27 -145h-520z" />
<glyph unicode="&#x113;" horiz-adv-x="1138" d="M61 418q0 262 174.5 452.5t430.5 190.5q193 0 293 -104.5t100 -278.5l-33 -178h-754q-8 -35 -8 -74q0 -123 78 -201t217 -78q80 0 163 30t126 61l43 28l55 -155l-55 -37q-35 -23 -139.5 -61t-202.5 -38q-223 0 -355.5 123t-132.5 320zM301 627h553q6 35 6 67 q0 102 -54 155.5t-147 53.5q-117 0 -214 -73.5t-144 -202.5zM469 1245l27 146h520l-27 -146h-520z" />
<glyph unicode="&#x114;" horiz-adv-x="1300" d="M-6 0l31 160h180l219 1128h-182l32 158h1047l-66 -336h-178l33 168h-483l-90 -465h512l-35 -168h-510l-94 -477h518l33 174h180l-68 -342h-1079zM868 1538q-117 0 -190.5 66.5t-50.5 173.5l6 28h149l-4 -26q-12 -61 16.5 -92t80 -31t93.5 31.5t54 93.5l4 24h152l-7 -28 q-23 -119 -105.5 -179.5t-197.5 -60.5z" />
<glyph unicode="&#x115;" horiz-adv-x="1138" d="M61 418q0 262 174.5 452.5t430.5 190.5q193 0 293 -104.5t100 -278.5l-33 -178h-754q-8 -35 -8 -74q0 -123 78 -201t217 -78q80 0 163 30t126 61l43 28l55 -155l-55 -37q-35 -23 -139.5 -61t-202.5 -38q-223 0 -355.5 123t-132.5 320zM301 627h553q6 35 6 67 q0 102 -54 155.5t-147 53.5q-117 0 -214 -73.5t-144 -202.5zM733 1178q-117 0 -190.5 66.5t-50.5 172.5l6 29h149l-4 -27q-12 -61 16.5 -92t80 -31t93 32t54.5 93l4 25h151l-6 -29q-23 -119 -105.5 -179t-197.5 -60z" />
<glyph unicode="&#x116;" horiz-adv-x="1300" d="M-6 0l31 160h180l219 1128h-182l32 158h1047l-66 -336h-178l33 168h-483l-90 -465h512l-35 -168h-510l-94 -477h518l33 174h180l-68 -342h-1079zM772 1606l39 200h188l-41 -200h-186z" />
<glyph unicode="&#x117;" horiz-adv-x="1138" d="M61 418q0 262 174.5 452.5t430.5 190.5q193 0 293 -104.5t100 -278.5l-33 -178h-754q-8 -35 -8 -74q0 -123 78 -201t217 -78q80 0 163 30t126 61l43 28l55 -155l-55 -37q-35 -23 -139.5 -61t-202.5 -38q-223 0 -355.5 123t-132.5 320zM301 627h553q6 35 6 67 q0 102 -54 155.5t-147 53.5q-117 0 -214 -73.5t-144 -202.5zM637 1245l39 201h188l-41 -201h-186z" />
<glyph unicode="&#x118;" horiz-adv-x="1300" d="M-6 0l31 160h180l219 1128h-182l32 158h1047l-66 -336h-178l33 168h-483l-90 -465h512l-35 -168h-510l-94 -477h518l33 174h180l-68 -342h-12q-39 0 -124 -81t-85 -148q0 -43 37 -61.5t76 -20.5l-64 -140q-76 8 -144.5 50.5t-68.5 126.5q0 150 184 274h-878z" />
<glyph unicode="&#x119;" horiz-adv-x="1138" d="M61 418q0 262 173.5 452.5t429.5 190.5q195 0 295 -104.5t100 -278.5l-33 -178h-754q-8 -35 -8 -74q0 -123 78 -201t217 -78q80 0 163 30t126 61l43 28l55 -155q-82 -57 -201 -105q-59 -27 -128.5 -97.5t-69.5 -137.5q0 -76 112 -82l-63 -140q-45 6 -89 20.5t-85 56.5 t-41 100q0 133 154 249q-219 6 -346.5 128t-127.5 315zM301 627h553q6 35 6 67q0 102 -54 155.5t-147 53.5q-117 0 -214 -73.5t-144 -202.5z" />
<glyph unicode="&#x11a;" horiz-adv-x="1300" d="M752 1546l-127 260h170l73 -166h4l142 166h186l-231 -260h-217zM-6 0l31 160h180l219 1128h-182l32 158h1047l-66 -336h-178l33 168h-483l-90 -465h512l-35 -168h-510l-94 -477h518l33 174h180l-68 -342h-1079z" />
<glyph unicode="&#x11b;" horiz-adv-x="1138" d="M616 1186l-127 260h170l74 -166h4l142 166h186l-231 -260h-218zM61 418q0 262 174.5 452.5t430.5 190.5q193 0 293 -104.5t100 -278.5l-33 -178h-754q-8 -35 -8 -74q0 -123 78 -201t217 -78q80 0 163 30t126 61l43 28l55 -155l-55 -37q-35 -23 -139.5 -61t-202.5 -38 q-223 0 -355.5 123t-132.5 320zM301 627h553q6 35 6 67q0 102 -54 155.5t-147 53.5q-117 0 -214 -73.5t-144 -202.5z" />
<glyph unicode="&#x11c;" horiz-adv-x="1576" d="M721 1546l231 260h215l129 -260h-172l-73 164h-4l-140 -164h-186zM115 604q0 354 259 610t627 256q123 0 246 -27.5t212 -95t71 -161.5l-35 -178h-188l20 106q12 61 -43 104.5t-130 59.5t-155 16q-285 0 -478 -205.5t-193 -474.5q0 -207 122.5 -333.5t346.5 -126.5 q135 0 264 44t147 136l39 190h-284l32 160h471l-80 -405q-20 -106 -126.5 -178t-229.5 -99t-250 -27q-303 0 -484 173t-181 456z" />
<glyph unicode="&#x11d;" horiz-adv-x="1284" d="M432 1186l232 260h215l129 -260h-172l-74 164h-4l-140 -164h-186zM88 -195q113 -68 277 -67q332 0 391 328l30 116h-4q-121 -170 -319 -170q-186 0 -290.5 116t-104.5 304q0 150 61 291t189 239.5t296 98.5q131 0 216 -51.5t104 -122.5h4q-2 14 4 43q20 106 137 106h224 l-29 -153h-115q-43 0 -53 -41l-156 -809q-33 -162 -125 -270.5t-204.5 -150.5t-243.5 -42q-207 0 -373 92zM270 446q0 -121 62.5 -191.5t177.5 -70.5t199 79t121.5 185.5t37.5 217.5q0 223 -237 223q-164 0 -262.5 -133.5t-98.5 -309.5z" />
<glyph unicode="&#x11e;" horiz-adv-x="1576" d="M115 604q0 354 259 610t627 256q123 0 246 -27.5t212 -95t71 -161.5l-35 -178h-188l20 106q12 61 -43 104.5t-130 59.5t-155 16q-285 0 -478 -205.5t-193 -474.5q0 -207 122.5 -333.5t346.5 -126.5q135 0 264 44t147 136l39 190h-284l32 160h471l-80 -405 q-20 -106 -126.5 -178t-229.5 -99t-250 -27q-303 0 -484 173t-181 456zM1032 1538q-117 0 -190.5 66.5t-50.5 173.5l6 28h149l-4 -26q-12 -61 16.5 -92t80 -31t93.5 31.5t54 93.5l4 24h151l-6 -28q-23 -119 -105.5 -179.5t-197.5 -60.5z" />
<glyph unicode="&#x11f;" horiz-adv-x="1284" d="M88 -195q113 -68 277 -67q332 0 391 328l30 116h-4q-121 -170 -319 -170q-186 0 -290.5 116t-104.5 304q0 150 61 291t189 239.5t296 98.5q131 0 216 -51.5t104 -122.5h4q-2 14 4 43q20 106 137 106h224l-29 -153h-115q-43 0 -53 -41l-156 -809q-33 -162 -125 -270.5 t-204.5 -150.5t-243.5 -42q-207 0 -373 92zM270 446q0 -121 62.5 -191.5t177.5 -70.5t199 79t121.5 185.5t37.5 217.5q0 223 -237 223q-164 0 -262.5 -133.5t-98.5 -309.5zM743 1178q-117 0 -190.5 66.5t-50.5 172.5l6 29h149l-4 -27q-12 -61 16.5 -92t80 -31t93.5 32t54 93 l4 25h152l-6 -29q-23 -119 -106 -179t-198 -60z" />
<glyph unicode="&#x120;" horiz-adv-x="1576" d="M115 604q0 354 259 610t627 256q123 0 246 -27.5t212 -95t71 -161.5l-35 -178h-188l20 106q12 61 -43 104.5t-130 59.5t-155 16q-285 0 -478 -205.5t-193 -474.5q0 -207 122.5 -333.5t346.5 -126.5q135 0 264 44t147 136l39 190h-284l32 160h471l-80 -405 q-20 -106 -126.5 -178t-229.5 -99t-250 -27q-303 0 -484 173t-181 456zM936 1606l39 200h188l-41 -200h-186z" />
<glyph unicode="&#x121;" horiz-adv-x="1284" d="M88 -195q113 -68 277 -67q332 0 391 328l30 116h-4q-121 -170 -319 -170q-186 0 -290.5 116t-104.5 304q0 150 61 291t189 239.5t296 98.5q131 0 216 -51.5t104 -122.5h4q-2 14 4 43q20 106 137 106h224l-29 -153h-115q-43 0 -53 -41l-156 -809q-33 -162 -125 -270.5 t-204.5 -150.5t-243.5 -42q-207 0 -373 92zM270 446q0 -121 62.5 -191.5t177.5 -70.5t199 79t121.5 185.5t37.5 217.5q0 223 -237 223q-164 0 -262.5 -133.5t-98.5 -309.5zM647 1245l39 201h188l-40 -201h-187z" />
<glyph unicode="&#x122;" horiz-adv-x="1576" d="M596 -119h174q4 -20 4 -41q0 -96 -58.5 -176t-152.5 -125l-71 74q111 86 110 203q0 32 -6 65zM115 604q0 354 259 610t627 256q123 0 246 -27.5t212 -95t71 -161.5l-35 -178h-188l20 106q12 61 -43 104.5t-130 59.5t-155 16q-285 0 -478 -205.5t-193 -474.5 q0 -207 122.5 -333.5t346.5 -126.5q135 0 264 44t147 136l39 190h-284l32 160h471l-80 -405q-20 -106 -126.5 -178t-229.5 -99t-250 -27q-303 0 -484 173t-181 456z" />
<glyph unicode="&#x123;" horiz-adv-x="1284" d="M795 1180h-174q-4 20 -5 41q0 96 58.5 176t152.5 125l72 -74q-111 -86 -111 -203q1 -32 7 -65zM88 -195q113 -68 277 -67q332 0 391 328l30 116h-4q-121 -170 -319 -170q-186 0 -290.5 116t-104.5 304q0 150 61 291t189 239.5t296 98.5q131 0 216 -51.5t104 -122.5h4 q-2 14 4 43q20 106 137 106h224l-29 -153h-115q-43 0 -53 -41l-156 -809q-33 -162 -125 -270.5t-204.5 -150.5t-243.5 -42q-207 0 -373 92zM270 446q0 -121 62.5 -191.5t177.5 -70.5t199 79t121.5 185.5t37.5 217.5q0 223 -237 223q-164 0 -262.5 -133.5t-98.5 -309.5z" />
<glyph unicode="&#x124;" horiz-adv-x="1740" d="M758 1546l231 260h215l129 -260h-172l-74 164h-4l-139 -164h-186zM-8 0l31 160h180l219 1128h-180l30 158h568l-31 -158h-180l-94 -481h747l94 481h-182l31 158h569l-31 -158h-182l-221 -1128h182l-31 -160h-569l31 160h182l94 479h-747l-94 -479h182l-31 -160h-567z" />
<glyph unicode="&#x125;" horiz-adv-x="1316" d="M162 1546l231 260h215l129 -260h-172l-73 164h-5l-139 -164h-186zM59 0l250 1292h-166l29 154h367l-103 -535l-26 -92h4q37 72 153.5 157t272.5 85q137 0 213.5 -70.5t76.5 -202.5q0 -70 -45 -292t-45 -256q0 -53 23.5 -71.5t69.5 -18.5l49 4l-31 -154q-39 -4 -88 -4 q-227 0 -227 194q0 49 44 268.5t44 270.5q0 150 -154 150q-152 0 -270.5 -121t-151.5 -293l-92 -465h-197z" />
<glyph unicode="&#x126;" horiz-adv-x="1740" d="M-6 0l31 160h180l160 827h-168l22 117h170l35 184h-182l32 158h568l-31 -158h-182l-35 -184h747l35 184h-180l31 158h567l-31 -158h-182l-35 -184h170l-22 -117h-170l-162 -827h182l-33 -160h-567l31 160h182l92 471h-749l-90 -471h180l-31 -160h-565zM528 772h750 l41 215h-750z" />
<glyph unicode="&#x127;" horiz-adv-x="1314" d="M57 0l226 1157h-148l27 127h145l31 162h199l-31 -162h313l-24 -127h-314l-47 -246l-26 -92h4q37 72 153.5 157t272.5 85q137 0 213.5 -70.5t76.5 -202.5q0 -70 -45 -292t-45 -256q0 -53 23.5 -71.5t68.5 -18.5l50 4l-31 -154q-39 -4 -88 -4q-227 0 -227 194 q0 49 44 268.5t44 270.5q0 150 -154 150q-152 0 -270.5 -121t-151.5 -293l-92 -465h-197z" />
<glyph unicode="&#x128;" horiz-adv-x="786" d="M-8 0l31 160h180l219 1128h-180l30 158h568l-31 -158h-182l-219 -1128h182l-31 -160h-567zM240 1548q25 125 87 192.5t152 67.5q47 0 83 -21.5t53.5 -47t41 -47t50.5 -21.5q70 0 98 131h149q-20 -123 -83.5 -191.5t-153.5 -68.5q-47 0 -83 21.5t-53.5 47t-41 47 t-50.5 21.5q-74 0 -100 -131h-149z" />
<glyph unicode="&#x129;" horiz-adv-x="653" d="M150 195q0 33 10 90l119 598h-175l31 153h371l-144 -733q-8 -45 -8 -63q0 -90 95 -90l47 4l-29 -154q-47 -4 -82 -4q-47 0 -82 6t-72.5 24.5t-59 60.5t-21.5 108zM102 1188q25 125 87.5 192.5t152.5 67.5q47 0 83 -21.5t53.5 -47t41 -47t49.5 -21.5q70 0 99 131h149 q-20 -123 -83.5 -191.5t-153.5 -68.5q-47 0 -83 21.5t-53.5 47t-41 47t-50.5 21.5q-74 0 -100 -131h-150z" />
<glyph unicode="&#x12a;" horiz-adv-x="786" d="M-8 0l31 160h180l219 1128h-180l30 158h568l-31 -158h-182l-219 -1128h182l-31 -160h-567zM324 1606l26 145h520l-26 -145h-520z" />
<glyph unicode="&#x12b;" horiz-adv-x="653" d="M150 195q0 33 10 90l119 598h-175l31 153h371l-144 -733q-8 -45 -8 -63q0 -90 95 -90l47 4l-29 -154q-47 -4 -82 -4q-47 0 -82 6t-72.5 24.5t-59 60.5t-21.5 108zM186 1245l27 146h520l-26 -146h-521z" />
<glyph unicode="&#x12c;" horiz-adv-x="786" d="M-8 0l31 160h180l219 1128h-180l30 158h568l-31 -158h-182l-219 -1128h182l-31 -160h-567zM588 1538q-117 0 -190.5 66.5t-51.5 173.5l6 28h150l-4 -26q-12 -61 16.5 -92t79.5 -31t93 31.5t54 93.5l4 24h152l-6 -28q-23 -119 -105.5 -179.5t-197.5 -60.5z" />
<glyph unicode="&#x12d;" horiz-adv-x="653" d="M150 195q0 33 10 90l119 598h-175l31 153h371l-144 -733q-8 -45 -8 -63q0 -90 95 -90l47 4l-29 -154q-47 -4 -82 -4q-47 0 -82 6t-72.5 24.5t-59 60.5t-21.5 108zM451 1178q-117 0 -191 66.5t-51 172.5l6 29h150l-5 -27q-12 -61 17 -92t80 -31t93 32t54 93l4 25h152 l-6 -29q-23 -119 -105.5 -179t-197.5 -60z" />
<glyph unicode="&#x12e;" horiz-adv-x="786" d="M-8 0l31 160h180l219 1128h-180l30 158h568l-31 -158h-182l-219 -1128h182l-31 -160h-10q-39 0 -125 -82t-86 -147q0 -43 36 -61.5t75 -20.5l-64 -140q-76 8 -144.5 50.5t-68.5 126.5q0 150 186 274h-366z" />
<glyph unicode="&#x12f;" horiz-adv-x="655" d="M84 -274q0 154 195 280q-129 35 -129 189q0 20 12 90l117 598h-173l29 153h373l-146 -733q-6 -33 -6 -63q0 -90 93 -90l49 4l-31 -154q-10 0 -21 -2q-45 -12 -121.5 -89t-76.5 -138q0 -43 37 -61.5t75 -20.5l-63 -140q-76 8 -144.5 50.5t-68.5 126.5zM344 1243l39 203 h209l-39 -203h-209z" />
<glyph unicode="&#x130;" horiz-adv-x="786" d="M-8 0l31 160h180l219 1128h-180l30 158h568l-31 -158h-182l-219 -1128h182l-31 -160h-567zM492 1606l38 200h189l-41 -200h-186z" />
<glyph unicode="&#x131;" horiz-adv-x="653" d="M150 195q0 33 10 90l119 598h-175l31 153h371l-144 -733q-8 -45 -8 -63q0 -90 95 -90l47 4l-29 -154q-47 -4 -82 -4q-47 0 -82 6t-72.5 24.5t-59 60.5t-21.5 108z" />
<glyph unicode="&#x132;" horiz-adv-x="1505" d="M645 -6l33 170q51 -2 98 9t97.5 41t89 93.5t57.5 153.5l160 827h-191l31 158h569l-30 -158h-175l-157 -811q-29 -152 -88.5 -254t-142.5 -151t-166 -65.5t-185 -12.5zM-6 0l31 160h180l219 1128h-182l32 158h568l-31 -158h-182l-219 -1128h155l-30 -160h-541z" />
<glyph unicode="&#x133;" horiz-adv-x="1230" d="M342 1243l41 203h209l-41 -203h-209zM150 195q0 33 10 90l119 598h-175l31 153h371l-144 -733q-8 -45 -8 -63q0 -90 95 -90l47 4l-29 -154q-47 -4 -82 -4q-47 0 -82 6t-72.5 24.5t-59 60.5t-21.5 108zM973 1243l39 203h209l-39 -203h-209zM731 -33l176 916h-174l31 153 h373l-207 -1061q-23 -123 -78 -207.5t-126 -122.5t-128 -52.5t-115 -14.5l-94 4l33 160q16 -2 45 -2q35 0 68.5 8t75.5 28.5t74 69.5t46 121z" />
<glyph unicode="&#x134;" horiz-adv-x="1132" d="M674 1546l231 260h215l129 -260h-172l-73 164h-5l-139 -164h-186zM0 317l27 170h196q-23 -82 -22 -145q0 -184 178 -184q94 0 170 61.5t100 194.5l170 874h-213l31 158h577l-30 -158h-160l-172 -889q-29 -145 -105.5 -243.5t-171 -139.5t-200.5 -41q-158 0 -266.5 87 t-108.5 255z" />
<glyph unicode="&#x135;" horiz-adv-x="610" d="M115 1186l233 260h215l127 -260h-170l-74 166h-4l-141 -166h-186zM111 -33l176 916h-174l30 153h373l-207 -1061q-23 -123 -78 -207.5t-125.5 -122.5t-128 -52.5t-114.5 -14.5l-94 4l32 160q16 -2 45 -2q35 0 69 8t76 28.5t74 69.5t46 121z" />
<glyph unicode="&#x136;" horiz-adv-x="1419" d="M502 -119h174q4 -20 4 -41q0 -96 -58.5 -176t-152.5 -125l-72 74q111 86 111 203q0 32 -6 65zM-8 0l31 160h180l219 1128h-180l30 158h545l-31 -158h-159l-88 -454h176l403 454h-123l31 158h487l-30 -158h-140l-477 -530v-4q33 -20 58 -88l161 -416q18 -51 41 -72.5 t76 -21.5l62 4l-31 -160q-33 -4 -98 -4q-113 0 -165 49t-87 143l-152 410q-23 68 -104 68h-121l-98 -506h178l-33 -160h-561z" />
<glyph unicode="&#x137;" horiz-adv-x="1144" d="M362 -119h175q4 -20 4 -41q0 -96 -58.5 -176t-152.5 -125l-72 74q111 86 111 203q-1 32 -7 65zM57 0l252 1292h-172l29 154h373l-158 -809h131l264 246h-129l29 153h463l-31 -153h-121l-334 -312v-4q29 -23 56 -82l112 -247q18 -43 42 -64.5t73 -21.5l57 2l-28 -154 q-29 -4 -91 -4q-59 0 -99 12t-67.5 44t-40 53.5t-34.5 74.5l-115 256q-23 49 -84 49h-82l-98 -485h-197z" />
<glyph unicode="&#x138;" horiz-adv-x="1200" d="M117 0l170 883h-172l30 153h371l-76 -395h138l262 242h-131l30 153h453l-29 -153h-123l-333 -314v-4q35 -20 59 -80l113 -247q20 -43 43.5 -64.5t72.5 -21.5l58 2l-31 -154q-29 -4 -84 -4q-57 0 -97 12t-68 43t-41 55.5t-36 73.5l-112 256q-23 47 -90 47h-84l-97 -483 h-196z" />
<glyph unicode="&#x139;" horiz-adv-x="1234" d="M444 1546l263 260h237l-303 -260h-197zM-4 0l31 160h178l219 1118h-182l32 168h570l-33 -168h-182l-217 -1110h503l48 233h178l-80 -401h-1065z" />
<glyph unicode="&#x13a;" horiz-adv-x="604" d="M326 1546l262 260h237l-303 -260h-196zM100 201q0 37 11 94l194 997h-174l31 154h370l-217 -1133q-10 -41 -10 -69q0 -51 23.5 -68.5t70.5 -17.5l50 4l-33 -164q-41 -4 -82 -4q-234 0 -234 207z" />
<glyph unicode="&#x13b;" horiz-adv-x="1234" d="M465 -119h174q4 -20 4 -41q0 -96 -58.5 -176t-152.5 -125l-72 74q111 86 111 203q0 32 -6 65zM-4 0l31 160h178l219 1118h-182l32 168h570l-33 -168h-182l-217 -1110h503l48 233h178l-80 -401h-1065z" />
<glyph unicode="&#x13c;" horiz-adv-x="604" d="M123 -119h174q4 -20 4 -41q0 -96 -58.5 -176t-152.5 -125l-72 74q111 86 111 203q0 32 -6 65zM100 201q0 37 11 94l194 997h-174l31 154h370l-217 -1133q-10 -41 -10 -69q0 -51 23.5 -68.5t70.5 -17.5l50 4l-33 -164q-41 -4 -82 -4q-234 0 -234 207z" />
<glyph unicode="&#x13d;" horiz-adv-x="1234" d="M465 -119h174q4 -20 4 -41q0 -96 -58.5 -176t-152.5 -125l-72 74q111 86 111 203q0 32 -6 65zM-4 0l31 160h178l219 1118h-182l32 168h570l-33 -168h-182l-217 -1110h503l48 233h178l-80 -401h-1065z" />
<glyph unicode="&#x13e;" horiz-adv-x="604" d="M672 1444h174q4 -20 4 -41q0 -96 -58.5 -176t-152.5 -125l-72 74q111 86 111 202q0 31 -6 66zM100 201q0 37 11 94l194 997h-174l31 154h370l-217 -1133q-10 -41 -10 -69q0 -51 23.5 -68.5t70.5 -17.5l50 4l-33 -164q-41 -4 -82 -4q-234 0 -234 207z" />
<glyph unicode="&#x13f;" horiz-adv-x="1234" d="M-4 0l31 160h178l219 1118h-182l32 168h570l-33 -168h-182l-217 -1110h503l48 233h178l-80 -401h-1065zM748 670l40 215h207l-41 -215h-206z" />
<glyph unicode="&#x140;" horiz-adv-x="755" d="M100 201q0 37 11 94l194 997h-174l31 154h370l-217 -1133q-10 -41 -10 -69q0 -51 23.5 -68.5t70.5 -17.5l50 4l-33 -164q-41 -4 -82 -4q-234 0 -234 207zM555 670l41 215h207l-41 -215h-207z" />
<glyph unicode="&#x141;" horiz-adv-x="1232" d="M-6 0l31 160h180l78 405l-193 -90l35 180l192 93l105 530h-180l32 168h568l-33 -168h-182l-82 -422l459 217l-35 -182l-459 -217l-100 -506h512l47 233h170l-78 -401h-1067z" />
<glyph unicode="&#x142;" horiz-adv-x="602" d="M111 291l73 379l-180 -92l33 182l182 92l86 440h-172l31 154h371l-95 -483l207 106l-37 -182l-204 -107l-93 -473q-16 -88 6.5 -118.5t77.5 -30.5l35 2l-33 -164q-31 -4 -65 -4q-278 0 -223 299z" />
<glyph unicode="&#x143;" horiz-adv-x="1720" d="M924 1546l262 260h237l-303 -260h-196zM-6 0l31 160h180l219 1128h-182l32 158h377l510 -1047q18 -39 29 -100h6q4 68 14 113l172 876h-184l31 158h571l-31 -158h-182l-252 -1288h-196l-512 1047q-18 41 -29 100h-6q-4 -68 -14 -113l-168 -874h184l-31 -160h-569z" />
<glyph unicode="&#x144;" horiz-adv-x="1376" d="M702 1186l263 260h237l-303 -260h-197zM117 0l164 838q6 45 -37 45h-129l30 153h236q111 0 111 -88q0 -66 -31 -139h4q37 76 154.5 164t283.5 88q135 0 211 -70.5t76 -202.5q0 -70 -45 -292t-45 -256q0 -53 23.5 -71.5t68.5 -18.5l49 4l-31 -154q-41 -4 -88 -4 q-227 0 -227 194q0 49 44 268.5t44 270.5q0 150 -156 150q-150 0 -269.5 -122t-151.5 -292l-91 -465h-198z" />
<glyph unicode="&#x145;" horiz-adv-x="1720" d="M635 -119h174q4 -20 4 -41q0 -96 -58.5 -176t-152.5 -125l-72 74q111 86 111 203q0 32 -6 65zM-6 0l31 160h180l219 1128h-182l32 158h377l510 -1047q18 -39 29 -100h6q4 68 14 113l172 876h-184l31 158h571l-31 -158h-182l-252 -1288h-196l-512 1047q-18 41 -29 100h-6 q-4 -68 -14 -113l-168 -874h184l-31 -160h-569z" />
<glyph unicode="&#x146;" horiz-adv-x="1376" d="M541 -119h174q4 -20 4 -41q0 -96 -58.5 -176t-152.5 -125l-72 74q111 86 111 203q0 32 -6 65zM117 0l164 838q6 45 -37 45h-129l30 153h236q111 0 111 -88q0 -66 -31 -139h4q37 76 154.5 164t283.5 88q135 0 211 -70.5t76 -202.5q0 -70 -45 -292t-45 -256 q0 -53 23.5 -71.5t68.5 -18.5l49 4l-31 -154q-41 -4 -88 -4q-227 0 -227 194q0 49 44 268.5t44 270.5q0 150 -156 150q-150 0 -269.5 -122t-151.5 -292l-91 -465h-198z" />
<glyph unicode="&#x147;" horiz-adv-x="1720" d="M950 1546l-127 260h170l74 -166h4l141 166h187l-232 -260h-217zM-6 0l31 160h180l219 1128h-182l32 158h377l510 -1047q18 -39 29 -100h6q4 68 14 113l172 876h-184l31 158h571l-31 -158h-182l-252 -1288h-196l-512 1047q-18 41 -29 100h-6q-4 -68 -14 -113l-168 -874 h184l-31 -160h-569z" />
<glyph unicode="&#x148;" horiz-adv-x="1376" d="M729 1186l-127 260h170l74 -166h4l141 166h187l-232 -260h-217zM117 0l164 838q6 45 -37 45h-129l30 153h236q111 0 111 -88q0 -66 -31 -139h4q37 76 154.5 164t283.5 88q135 0 211 -70.5t76 -202.5q0 -70 -45 -292t-45 -256q0 -53 23.5 -71.5t68.5 -18.5l49 4l-31 -154 q-41 -4 -88 -4q-227 0 -227 194q0 49 44 268.5t44 270.5q0 150 -156 150q-150 0 -269.5 -122t-151.5 -292l-91 -465h-198z" />
<glyph unicode="&#x149;" horiz-adv-x="1376" d="M248 1477h174q4 -20 4 -41q0 -96 -58.5 -176t-152.5 -125l-72 73q111 86 111 203q0 31 -6 66zM117 0l164 838q6 45 -37 45h-129l30 153h236q111 0 111 -88q0 -66 -31 -139h4q37 76 154.5 164t283.5 88q135 0 211 -70.5t76 -202.5q0 -70 -45 -292t-45 -256 q0 -53 23.5 -71.5t68.5 -18.5l49 4l-31 -154q-41 -4 -88 -4q-227 0 -227 194q0 49 44 268.5t44 270.5q0 150 -156 150q-150 0 -269.5 -122t-151.5 -292l-91 -465h-198z" />
<glyph unicode="&#x14a;" horiz-adv-x="1720" d="M-6 0l31 160h180l219 1128h-182l32 158h379l508 -1047q18 -39 29 -100h6q6 68 14 113l172 876h-184l31 158h571l-31 -158h-182l-235 -1208q-29 -152 -86.5 -254t-139.5 -153.5t-167 -72t-195 -20.5l35 176q279 0 336 248l-508 1043q-18 41 -29 100h-6q-4 -68 -14 -113 l-168 -874h184l-31 -160h-569z" />
<glyph unicode="&#x14b;" horiz-adv-x="1320" d="M117 0l164 838q6 45 -37 45h-129l30 153h236q111 0 111 -88q0 -66 -31 -139h4q37 76 154.5 164t283.5 88q135 0 211 -70.5t76 -202.5q0 -55 -31 -208l-117 -611q-25 -123 -80 -208t-125.5 -122.5t-128 -52t-114.5 -14.5l-94 4l32 160q16 -2 46 -2q51 0 96 12t97 67.5 t71 149.5l116 598q25 131 25 168q0 150 -156 150q-150 0 -269.5 -122t-151.5 -292l-91 -465h-198z" />
<glyph unicode="&#x14c;" horiz-adv-x="1687" d="M778 1606l27 145h520l-27 -145h-520zM115 606q0 229 123.5 430t325.5 317.5t427 116.5q281 0 455 -172t174 -442q0 -233 -125 -438t-326.5 -324t-425.5 -119q-279 0 -453.5 177.5t-174.5 453.5zM322 614q0 -201 121.5 -328.5t314.5 -127.5q250 0 451.5 204.5t201.5 483.5 q0 195 -122 319.5t-314 124.5q-252 0 -452.5 -201t-200.5 -475z" />
<glyph unicode="&#x14d;" horiz-adv-x="1284" d="M508 1245l27 146h520l-27 -146h-520zM59 432q0 262 197 445.5t457 183.5q211 0 344 -126t133 -327q0 -264 -197.5 -448.5t-455.5 -184.5q-211 0 -344.5 127t-133.5 330zM262 440q0 -131 81 -212t210 -81q166 0 300 132.5t134 318.5q0 129 -81 210t-210 81 q-168 0 -301 -131.5t-133 -317.5z" />
<glyph unicode="&#x14e;" horiz-adv-x="1687" d="M115 606q0 229 123.5 430t325.5 317.5t427 116.5q281 0 455 -172t174 -442q0 -233 -125 -438t-326.5 -324t-425.5 -119q-279 0 -453.5 177.5t-174.5 453.5zM322 614q0 -201 121.5 -328.5t314.5 -127.5q250 0 451.5 204.5t201.5 483.5q0 195 -122 319.5t-314 124.5 q-252 0 -452.5 -201t-200.5 -475zM1040 1538q-117 0 -190.5 66.5t-50.5 173.5l6 28h149l-4 -26q-12 -61 16.5 -92t80 -31t93.5 31.5t54 93.5l4 24h152l-7 -28q-23 -119 -105.5 -179.5t-197.5 -60.5z" />
<glyph unicode="&#x14f;" horiz-adv-x="1284" d="M59 432q0 262 197 445.5t457 183.5q211 0 344 -126t133 -327q0 -264 -197.5 -448.5t-455.5 -184.5q-211 0 -344.5 127t-133.5 330zM262 440q0 -131 81 -212t210 -81q166 0 300 132.5t134 318.5q0 129 -81 210t-210 81q-168 0 -301 -131.5t-133 -317.5zM770 1178 q-117 0 -190.5 66.5t-51.5 172.5l7 29h149l-4 -27q-12 -61 16.5 -92t79.5 -31t93 32t55 93l4 25h151l-6 -29q-23 -119 -105.5 -179t-197.5 -60z" />
<glyph unicode="&#x150;" horiz-adv-x="1687" d="M1067 1546l203 260h221l-248 -260h-176zM748 1546l190 260h195l-197 -260h-188zM115 606q0 229 123.5 430t325.5 317.5t427 116.5q281 0 455 -172t174 -442q0 -233 -125 -438t-326.5 -324t-425.5 -119q-279 0 -453.5 177.5t-174.5 453.5zM322 614q0 -201 121.5 -328.5 t314.5 -127.5q250 0 451.5 204.5t201.5 483.5q0 195 -122 319.5t-314 124.5q-252 0 -452.5 -201t-200.5 -475z" />
<glyph unicode="&#x151;" horiz-adv-x="1284" d="M797 1186l202 260h222l-248 -260h-176zM477 1186l191 260h194l-196 -260h-189zM59 432q0 262 197 445.5t457 183.5q211 0 344 -126t133 -327q0 -264 -197.5 -448.5t-455.5 -184.5q-211 0 -344.5 127t-133.5 330zM262 440q0 -131 81 -212t210 -81q166 0 300 132.5 t134 318.5q0 129 -81 210t-210 81q-168 0 -301 -131.5t-133 -317.5z" />
<glyph unicode="&#x152;" horiz-adv-x="2002" d="M115 598q0 229 120.5 431t320.5 318.5t423 116.5q63 0 156.5 -9t132.5 -9h755l-65 -336h-170l33 168h-486l-92 -467h508l-33 -166h-508l-92 -477h520l33 170h170l-65 -338h-764q-31 0 -116 -9t-138 -9q-289 0 -466 172t-177 444zM324 598q0 -199 119.5 -321.5 t322.5 -122.5q37 0 74 4t57 8l18 4l213 1108q-59 14 -141 14q-268 0 -465.5 -204.5t-197.5 -489.5z" />
<glyph unicode="&#x153;" horiz-adv-x="2052" d="M59 432q0 262 195 445.5t448 183.5q145 0 252 -65.5t162 -180.5h4q80 115 198 180.5t257 65.5q195 0 295 -104.5t100 -278.5q0 -37 -8 -82t-16 -72l-7 -26h-755q-8 -33 -8 -74q0 -121 78.5 -199t218.5 -78q78 0 160.5 31t125.5 60l43 30l58 -157q-18 -14 -53 -37 t-139.5 -61t-205.5 -38q-154 0 -264.5 67t-161.5 185h-4q-86 -117 -216 -184.5t-269 -67.5q-217 0 -352.5 127t-135.5 330zM1214 629h553q6 33 7 65q0 100 -55.5 154.5t-145.5 54.5q-117 0 -214.5 -72.5t-144.5 -201.5zM262 440q0 -131 81 -212t210 -81q166 0 300 132.5 t134 318.5q0 129 -81 210t-210 81q-172 0 -303 -131.5t-131 -317.5z" />
<glyph unicode="&#x154;" horiz-adv-x="1441" d="M741 1546l263 260h237l-303 -260h-197zM-8 0l31 160h182l219 1128h-182l32 158h637q170 0 258 -45q170 -88 170 -305q0 -166 -103 -300t-275 -171v-7q33 -39 49 -77l112 -291q14 -35 24.5 -51.5t33 -29.5t59.5 -13l59 4l-30 -160q-33 -4 -97 -4q-111 0 -162 49t-87 143 l-117 314q-18 49 -46 65.5t-83 16.5h-182l-84 -424h176l-31 -160h-563zM524 752h285q131 0 226 89t95 228q0 121 -77 170q-57 39 -185 39h-241z" />
<glyph unicode="&#x155;" horiz-adv-x="837" d="M424 1186l262 260h238l-303 -260h-197zM117 0l162 838q8 45 -37 45h-129l32 153h234q111 0 110 -88q0 -66 -36 -176h4q55 119 155.5 198t216.5 79q37 0 62 -5l-39 -196q-31 6 -55 6q-137 0 -255 -141.5t-153 -327.5l-74 -385h-198z" />
<glyph unicode="&#x156;" horiz-adv-x="1441" d="M535 -119h174q4 -20 4 -41q0 -96 -58.5 -176t-152.5 -125l-72 74q111 86 111 203q0 32 -6 65zM-8 0l31 160h182l219 1128h-182l32 158h637q170 0 258 -45q170 -88 170 -305q0 -166 -103 -300t-275 -171v-7q33 -39 49 -77l112 -291q14 -35 24.5 -51.5t33 -29.5t59.5 -13 l59 4l-30 -160q-33 -4 -97 -4q-111 0 -162 49t-87 143l-117 314q-18 49 -46 65.5t-83 16.5h-182l-84 -424h176l-31 -160h-563zM524 752h285q131 0 226 89t95 228q0 121 -77 170q-57 39 -185 39h-241z" />
<glyph unicode="&#x157;" horiz-adv-x="837" d="M100 -119h174q4 -20 5 -41q0 -96 -58.5 -176t-152.5 -125l-72 74q111 86 110 203q0 32 -6 65zM117 0l162 838q8 45 -37 45h-129l32 153h234q111 0 110 -88q0 -66 -36 -176h4q55 119 155.5 198t216.5 79q37 0 62 -5l-39 -196q-31 6 -55 6q-137 0 -255 -141.5t-153 -327.5 l-74 -385h-198z" />
<glyph unicode="&#x158;" horiz-adv-x="1441" d="M768 1546l-127 260h170l74 -166h4l141 166h187l-232 -260h-217zM-8 0l31 160h182l219 1128h-182l32 158h637q170 0 258 -45q170 -88 170 -305q0 -166 -103 -300t-275 -171v-7q33 -39 49 -77l112 -291q14 -35 24.5 -51.5t33 -29.5t59.5 -13l59 4l-30 -160q-33 -4 -97 -4 q-111 0 -162 49t-87 143l-117 314q-18 49 -46 65.5t-83 16.5h-182l-84 -424h176l-31 -160h-563zM524 752h285q131 0 226 89t95 228q0 121 -77 170q-57 39 -185 39h-241z" />
<glyph unicode="&#x159;" horiz-adv-x="837" d="M449 1186l-127 260h170l73 -166h4l142 166h186l-231 -260h-217zM117 0l162 838q8 45 -37 45h-129l32 153h234q111 0 110 -88q0 -66 -36 -176h4q55 119 155.5 198t216.5 79q37 0 62 -5l-39 -196q-31 6 -55 6q-137 0 -255 -141.5t-153 -327.5l-74 -385h-198z" />
<glyph unicode="&#x15a;" horiz-adv-x="1204" d="M647 1546l262 260h238l-303 -260h-197zM59 297l29 143h188l-22 -112q-16 -88 65.5 -129t204.5 -41q143 0 234.5 73.5t91.5 190.5q0 70 -47 121t-117 79l-152 62q-83 35 -153 73t-117 111.5t-47 173.5q0 201 161 314.5t390 113.5q96 0 188.5 -22.5t160 -83.5t48.5 -147 l-32 -156h-189l19 100q10 45 -26 76t-87 42t-109 11q-133 0 -223 -64.5t-90 -170.5q0 -78 65.5 -130.5t158.5 -86t185.5 -73.5t158 -123t65.5 -208q0 -209 -164 -334t-399 -125q-76 0 -154 16.5t-150.5 51.5t-111.5 101.5t-23 152.5z" />
<glyph unicode="&#x15b;" horiz-adv-x="995" d="M494 1186l262 260h237l-303 -260h-196zM10 231l19 103h174l-13 -68q-10 -51 32 -82.5t90 -39t102 -7.5q100 0 167.5 41t67.5 111q0 53 -51 91t-124 64.5t-146.5 58.5t-124.5 92t-51 148q0 150 130 234t310 84q143 0 242.5 -57.5t78.5 -163.5l-22 -113h-174l14 74 q10 55 -43 77.5t-125 22.5q-88 0 -151.5 -38t-63.5 -105q0 -53 51.5 -91t125 -62.5t146 -55.5t124 -89.5t51.5 -144.5q0 -152 -127 -246t-334 -94q-158 0 -279 64.5t-96 191.5z" />
<glyph unicode="&#x15c;" horiz-adv-x="1204" d="M479 1546l232 260h215l129 -260h-172l-74 164h-4l-139 -164h-187zM59 297l29 143h188l-22 -112q-16 -88 65.5 -129t204.5 -41q143 0 234.5 73.5t91.5 190.5q0 70 -47 121t-117 79l-152 62q-83 35 -153 73t-117 111.5t-47 173.5q0 201 161 314.5t390 113.5 q96 0 188.5 -22.5t160 -83.5t48.5 -147l-32 -156h-189l19 100q10 45 -26 76t-87 42t-109 11q-133 0 -223 -64.5t-90 -170.5q0 -78 65.5 -130.5t158.5 -86t185.5 -73.5t158 -123t65.5 -208q0 -209 -164 -334t-399 -125q-76 0 -154 16.5t-150.5 51.5t-111.5 101.5t-23 152.5z " />
<glyph unicode="&#x15d;" horiz-adv-x="995" d="M326 1186l231 260h215l129 -260h-172l-74 164h-4l-139 -164h-186zM10 231l19 103h174l-13 -68q-10 -51 32 -82.5t90 -39t102 -7.5q100 0 167.5 41t67.5 111q0 53 -51 91t-124 64.5t-146.5 58.5t-124.5 92t-51 148q0 150 130 234t310 84q143 0 242.5 -57.5t78.5 -163.5 l-22 -113h-174l14 74q10 55 -43 77.5t-125 22.5q-88 0 -151.5 -38t-63.5 -105q0 -53 51.5 -91t125 -62.5t146 -55.5t124 -89.5t51.5 -144.5q0 -152 -127 -246t-334 -94q-158 0 -279 64.5t-96 191.5z" />
<glyph unicode="&#x15e;" horiz-adv-x="1204" d="M330 -199l82 181q-100 12 -181 42.5t-135.5 102.5t-36.5 170l29 143h188l-22 -112q-16 -88 65.5 -129t204.5 -41q143 0 234.5 73.5t91.5 190.5q0 70 -47 121t-117 79l-152 62q-83 35 -153 73t-117 111.5t-47 173.5q0 201 161 314.5t390 113.5q96 0 188.5 -22.5t160 -83.5 t48.5 -147l-32 -156h-189l19 100q10 45 -26 76t-87 42t-109 11q-133 0 -223 -64.5t-90 -170.5q0 -78 65.5 -130.5t158.5 -86t185.5 -73.5t158 -123t65.5 -208q0 -203 -155.5 -326.5t-385.5 -132.5l-39 -90q59 -6 98 -43t39 -96q0 -94 -79.5 -142t-180.5 -48q-29 0 -57.5 3 t-42.5 7l-14 4l22 108q37 -12 88 -12q45 0 82 17.5t37 58.5q0 59 -108 59h-35z" />
<glyph unicode="&#x15f;" horiz-adv-x="993" d="M236 -199l81 179q-143 14 -235 76.5t-72 174.5l19 103h174l-13 -68q-10 -51 32 -82.5t90 -39t102 -7.5q100 0 167.5 41t67.5 111q0 53 -51 91t-124 64.5t-146.5 58.5t-124.5 92t-51 148q0 150 130 234t310 84q143 0 242.5 -57.5t78.5 -163.5l-22 -113h-174l14 74 q10 55 -43 77.5t-125 22.5q-88 0 -151.5 -38t-63.5 -105q0 -53 51.5 -91t125 -62.5t146 -55.5t124 -89.5t51.5 -144.5q0 -143 -115 -236t-303 -102l-41 -92q59 -6 99 -43t40 -96q0 -94 -80.5 -142t-179.5 -48q-29 0 -57.5 3t-42.5 7l-14 4l20 108q37 -12 88 -12 q119 0 119 76q0 59 -107 59h-36z" />
<glyph unicode="&#x160;" horiz-adv-x="1204" d="M674 1546l-127 260h170l74 -166h4l141 166h186l-231 -260h-217zM59 297l29 143h188l-22 -112q-16 -88 65.5 -129t204.5 -41q143 0 234.5 73.5t91.5 190.5q0 70 -47 121t-117 79l-152 62q-83 35 -153 73t-117 111.5t-47 173.5q0 201 161 314.5t390 113.5q96 0 188.5 -22.5 t160 -83.5t48.5 -147l-32 -156h-189l19 100q10 45 -26 76t-87 42t-109 11q-133 0 -223 -64.5t-90 -170.5q0 -78 65.5 -130.5t158.5 -86t185.5 -73.5t158 -123t65.5 -208q0 -209 -164 -334t-399 -125q-76 0 -154 16.5t-150.5 51.5t-111.5 101.5t-23 152.5z" />
<glyph unicode="&#x161;" horiz-adv-x="995" d="M520 1186l-127 260h170l74 -166h4l141 166h187l-232 -260h-217zM10 231l19 103h174l-13 -68q-10 -51 32 -82.5t90 -39t102 -7.5q100 0 167.5 41t67.5 111q0 53 -51 91t-124 64.5t-146.5 58.5t-124.5 92t-51 148q0 150 130 234t310 84q143 0 242.5 -57.5t78.5 -163.5 l-22 -113h-174l14 74q10 55 -43 77.5t-125 22.5q-88 0 -151.5 -38t-63.5 -105q0 -53 51.5 -91t125 -62.5t146 -55.5t124 -89.5t51.5 -144.5q0 -152 -127 -246t-334 -94q-158 0 -279 64.5t-96 191.5z" />
<glyph unicode="&#x162;" horiz-adv-x="1363" d="M276 0l31 160h180l220 1118h-340l-43 -225h-181l78 393h1241l-78 -393h-178l43 225h-338l-219 -1118h182l-30 -160h-234l-49 -115q59 -6 98 -43t39 -96q0 -94 -79.5 -142t-180.5 -48q-29 0 -57.5 3t-42.5 7l-14 4l22 108q37 -12 88 -12q45 0 82 17.5t37 58.5 q0 59 -109 59h-34l90 199h-224z" />
<glyph unicode="&#x163;" horiz-adv-x="735" d="M180 -199l109 236q-131 72 -131 258q0 39 10 104l96 484h-174l31 153h178l55 285h193l-55 -285h249l-30 -153h-250l-92 -484q-8 -39 -9 -80q0 -164 170 -163l60 4l-33 -164q-33 -4 -65 -4q-66 0 -109 10l-51 -117q59 -6 98 -43t39 -96q0 -94 -80 -142t-180 -48 q-29 0 -57.5 3t-42.5 7l-15 4l23 108q37 -12 88 -12q45 0 82 17.5t37 58.5q0 59 -109 59h-35z" />
<glyph unicode="&#x164;" horiz-adv-x="1363" d="M758 1546l-127 260h170l73 -166h5l141 166h186l-231 -260h-217zM276 0l31 160h180l220 1118h-340l-43 -225h-181l78 393h1241l-78 -393h-178l43 225h-338l-219 -1118h182l-30 -160h-568z" />
<glyph unicode="&#x165;" horiz-adv-x="731" d="M754 1475h174q4 -20 4 -41q0 -96 -58.5 -176t-152.5 -125l-72 73q111 86 111 203q0 33 -6 66zM154 295q0 45 12 104l94 484h-174l31 153h178l55 285h193l-56 -285h250l-30 -153h-250l-92 -484q-8 -39 -9 -80q0 -164 172 -163l58 4l-33 -164q-33 -4 -66 -4 q-333 0 -333 303z" />
<glyph unicode="&#x166;" horiz-adv-x="1363" d="M276 0l31 160h180l95 481h-369l29 143h368l97 494h-340l-43 -225h-181l78 393h1241l-78 -393h-178l45 225h-340l-96 -494h371l-29 -143h-371l-94 -481h182l-30 -160h-568z" />
<glyph unicode="&#x167;" horiz-adv-x="731" d="M156 295q0 39 10 104l27 142h-164l28 143h164l41 207h-172l29 145h178l55 285h193l-56 -285h248l-28 -145h-248l-41 -207h237l-28 -143h-236l-26 -142q-8 -39 -9 -80q0 -164 170 -163l58 4l-33 -164q-31 -4 -64 -4q-333 0 -333 303z" />
<glyph unicode="&#x168;" horiz-adv-x="1640" d="M217 399q0 49 21 172l139 717h-180l30 158h568l-31 -158h-182l-140 -719q-18 -106 -18 -147q0 -123 81 -193.5t226 -70.5q170 0 285 92q117 98 147 268l152 770h-182l30 158h570l-31 -158h-182l-154 -786q-57 -281 -258 -420q-160 -106 -383 -107q-225 0 -366.5 113.5 t-141.5 310.5zM666 1548q25 125 87 192.5t152 67.5q47 0 83 -21.5t53.5 -47t41 -47t50.5 -21.5q70 0 98 131h149q-20 -123 -83.5 -191.5t-153.5 -68.5q-47 0 -83 21.5t-53.5 47t-41 47t-50.5 21.5q-74 0 -100 -131h-149z" />
<glyph unicode="&#x169;" horiz-adv-x="1363" d="M152 248q0 66 14 131l96 504h-172l31 153h371l-119 -616q-16 -70 -17 -119q0 -145 156 -145q147 0 265 126t147 283l61 318h-172l31 153h370l-143 -733q-6 -33 -6 -63q0 -90 92 -90l49 4l-30 -154q-45 -4 -95 -4q-109 0 -163 56.5t-44 170.5h-4q-63 -98 -171.5 -173 t-256.5 -75q-127 0 -208.5 68t-81.5 205zM416 1188q25 125 87 192.5t152 67.5q47 0 83 -21.5t53.5 -47t41 -47t50.5 -21.5q70 0 98 131h149q-20 -123 -83.5 -191.5t-153.5 -68.5q-47 0 -83 21.5t-53.5 47t-41 47t-49.5 21.5q-74 0 -101 -131h-149z" />
<glyph unicode="&#x16a;" horiz-adv-x="1640" d="M217 399q0 49 21 172l139 717h-180l30 158h568l-31 -158h-182l-140 -719q-18 -106 -18 -147q0 -123 81 -193.5t226 -70.5q170 0 285 92q117 98 147 268l152 770h-182l30 158h570l-31 -158h-182l-154 -786q-57 -281 -258 -420q-160 -106 -383 -107q-225 0 -366.5 113.5 t-141.5 310.5zM752 1606l26 145h520l-26 -145h-520z" />
<glyph unicode="&#x16b;" horiz-adv-x="1363" d="M152 248q0 66 14 131l96 504h-172l31 153h371l-119 -616q-16 -70 -17 -119q0 -145 156 -145q147 0 265 126t147 283l61 318h-172l31 153h370l-143 -733q-6 -33 -6 -63q0 -90 92 -90l49 4l-30 -154q-45 -4 -95 -4q-109 0 -163 56.5t-44 170.5h-4q-63 -98 -171.5 -173 t-256.5 -75q-127 0 -208.5 68t-81.5 205zM500 1245l26 146h521l-27 -146h-520z" />
<glyph unicode="&#x16c;" horiz-adv-x="1640" d="M217 399q0 49 21 172l139 717h-180l30 158h568l-31 -158h-182l-140 -719q-18 -106 -18 -147q0 -123 81 -193.5t226 -70.5q170 0 285 92q117 98 147 268l152 770h-182l30 158h570l-31 -158h-182l-154 -786q-57 -281 -258 -420q-160 -106 -383 -107q-225 0 -366.5 113.5 t-141.5 310.5zM1014 1538q-117 0 -190.5 66.5t-51.5 173.5l6 28h150l-4 -26q-12 -61 16.5 -92t79.5 -31t93 31.5t54 93.5l4 24h152l-6 -28q-23 -119 -105.5 -179.5t-197.5 -60.5z" />
<glyph unicode="&#x16d;" horiz-adv-x="1363" d="M152 248q0 66 14 131l96 504h-172l31 153h371l-119 -616q-16 -70 -17 -119q0 -145 156 -145q147 0 265 126t147 283l61 318h-172l31 153h370l-143 -733q-6 -33 -6 -63q0 -90 92 -90l49 4l-30 -154q-45 -4 -95 -4q-109 0 -163 56.5t-44 170.5h-4q-63 -98 -171.5 -173 t-256.5 -75q-127 0 -208.5 68t-81.5 205zM764 1178q-117 0 -190.5 66.5t-51.5 172.5l6 29h150l-4 -27q-12 -61 16.5 -92t79.5 -31t93 32t55 93l4 25h151l-6 -29q-23 -119 -105.5 -179t-197.5 -60z" />
<glyph unicode="&#x16e;" horiz-adv-x="1640" d="M1004 1513q-70 0 -118 38t-48 102q0 80 64.5 132t141.5 52q72 0 120 -39t48 -104q0 -78 -64 -129.5t-144 -51.5zM1010 1599q39 0 64.5 27t25.5 68q0 57 -60 57q-35 0 -62.5 -27.5t-27.5 -68.5q1 -56 60 -56zM217 399q0 49 21 172l139 717h-180l30 158h568l-31 -158h-182 l-140 -719q-18 -106 -18 -147q0 -123 81 -193.5t226 -70.5q170 0 285 92q117 98 147 268l152 770h-182l30 158h570l-31 -158h-182l-154 -786q-57 -281 -258 -420q-160 -106 -383 -107q-225 0 -366.5 113.5t-141.5 310.5z" />
<glyph unicode="&#x16f;" horiz-adv-x="1363" d="M754 1153q-70 0 -118 38t-48 101q0 80 64.5 132.5t142.5 52.5q72 0 120 -39t48 -105q0 -78 -64.5 -129t-144.5 -51zM760 1239q39 0 64.5 26.5t25.5 67.5q0 57 -59 58q-35 0 -63 -28t-28 -69q1 -55 60 -55zM152 248q0 66 14 131l96 504h-172l31 153h371l-119 -616 q-16 -70 -17 -119q0 -145 156 -145q147 0 265 126t147 283l61 318h-172l31 153h370l-143 -733q-6 -33 -6 -63q0 -90 92 -90l49 4l-30 -154q-45 -4 -95 -4q-109 0 -163 56.5t-44 170.5h-4q-63 -98 -171.5 -173t-256.5 -75q-127 0 -208.5 68t-81.5 205z" />
<glyph unicode="&#x170;" horiz-adv-x="1640" d="M217 399q0 49 21 172l139 717h-180l30 158h568l-31 -158h-182l-140 -719q-18 -106 -18 -147q0 -123 81 -193.5t226 -70.5q170 0 285 92q117 98 147 268l152 770h-182l30 158h570l-31 -158h-182l-154 -786q-57 -281 -258 -420q-160 -106 -383 -107q-225 0 -366.5 113.5 t-141.5 310.5zM1038 1546l203 260h221l-248 -260h-176zM719 1546l190 260h195l-197 -260h-188z" />
<glyph unicode="&#x171;" horiz-adv-x="1363" d="M152 248q0 66 14 131l96 504h-172l31 153h371l-119 -616q-16 -70 -17 -119q0 -145 156 -145q147 0 265 126t147 283l61 318h-172l31 153h370l-143 -733q-6 -33 -6 -63q0 -90 92 -90l49 4l-30 -154q-45 -4 -95 -4q-109 0 -163 56.5t-44 170.5h-4q-63 -98 -171.5 -173 t-256.5 -75q-127 0 -208.5 68t-81.5 205zM788 1186l203 260h221l-247 -260h-177zM469 1186l190 260h195l-197 -260h-188z" />
<glyph unicode="&#x172;" horiz-adv-x="1640" d="M217 408q0 55 12 116l148 764h-180l30 158h568l-31 -158h-182l-150 -774q-8 -39 -8 -86q0 -129 80 -199.5t225 -70.5q168 0 284.5 95t149.5 265l152 770h-182l30 158h570l-31 -158h-182l-156 -796q-70 -354 -416 -488q-57 -23 -127.5 -92.5t-70.5 -140.5q0 -76 112 -82 l-63 -140q-45 6 -89 20.5t-85 56.5t-41 100q0 131 153 251q-215 -6 -367.5 102t-152.5 329z" />
<glyph unicode="&#x173;" horiz-adv-x="1363" d="M791 -274q0 152 192 280q-129 37 -109 217h-4q-63 -98 -171.5 -173t-256.5 -75q-127 0 -208.5 68t-81.5 205q0 66 14 131l96 504h-172l31 153h371l-119 -616q-16 -70 -17 -119q0 -145 156 -145q147 0 265 126t147 283l61 318h-172l31 153h370l-143 -733q-6 -33 -6 -63 q0 -90 92 -90l49 4l-30 -154q-10 0 -23 -2q-47 -10 -123 -88t-76 -139q0 -43 37 -61.5t76 -20.5l-63 -140q-76 8 -144.5 50.5t-68.5 126.5z" />
<glyph unicode="&#x174;" horiz-adv-x="2064" d="M915 1546l232 260h215l129 -260h-172l-74 164h-4l-139 -164h-187zM375 0l-72 1288h-139l31 158h507l-30 -158h-172l41 -948l-6 -109h8q16 57 41 109l518 1106h174l86 -1106v-109h6q16 57 37 109l410 948h-173l31 158h522l-30 -158h-140l-575 -1288h-233l-82 1026 q-4 51 4 115h-9q-16 -63 -40 -115l-482 -1026h-233z" />
<glyph unicode="&#x175;" horiz-adv-x="1761" d="M692 1186l232 260h215l129 -260h-172l-74 164h-4l-139 -164h-187zM301 0l-96 883h-129l30 153h457l-28 -153h-142l60 -602l-2 -97h6q14 53 32 97l377 753h183l77 -753l-2 -97h6q14 53 35 97l295 602h-139l29 153h471l-31 -153h-129l-438 -883h-224l-81 692v99h-7 q-14 -51 -37 -99l-352 -692h-221z" />
<glyph unicode="&#x176;" horiz-adv-x="1335" d="M264 0l31 160h182l88 452l-274 676h-137l30 158h490l-31 -158h-151l178 -454l18 -62h4q18 31 41 62l359 454h-150l31 158h502l-31 -158h-137l-537 -676l-88 -452h180l-31 -160h-567zM555 1546l231 260h215l129 -260h-172l-73 164h-4l-140 -164h-186z" />
<glyph unicode="&#x177;" horiz-adv-x="1212" d="M-31 -219q49 -45 137 -45q129 0 220 143l61 103l-186 901h-131l30 153h465l-28 -153h-138l111 -617q4 -20 4 -42.5t-2 -35.5v-12h6q16 45 43 90l348 617h-133l31 153h465l-31 -153h-127l-616 -1047q-156 -266 -396 -266q-143 0 -225 68zM424 1186l231 260h215l129 -260 h-172l-73 164h-4l-140 -164h-186z" />
<glyph unicode="&#x178;" horiz-adv-x="1335" d="M264 0l31 160h182l88 452l-274 676h-137l30 158h490l-31 -158h-151l178 -454l18 -62h4q18 31 41 62l359 454h-150l31 158h502l-31 -158h-137l-537 -676l-88 -452h180l-31 -160h-567zM977 1599l43 207h176l-43 -207h-176zM567 1599l41 207h178l-43 -207h-176z" />
<glyph unicode="&#x179;" horiz-adv-x="1300" d="M690 1546l262 260h238l-303 -260h-197zM-2 0l27 135l940 1075l73 70v4q-41 -6 -82 -6h-524l-43 -225h-180l78 393h1042l-26 -133l-945 -1077l-73 -70v-4q41 6 82 6h555l47 233h178l-80 -401h-1069z" />
<glyph unicode="&#x17a;" horiz-adv-x="1085" d="M514 1186l262 260h238l-303 -260h-197zM-23 0l25 131l678 672l86 80v4q-41 -4 -98 -4h-324l-31 -166h-174l64 319h846l-27 -131l-676 -672q-20 -20 -42 -39l-34 -31q-12 -11 -12 -9v-4q43 4 100 4h367l33 165h172l-62 -319h-891z" />
<glyph unicode="&#x17b;" horiz-adv-x="1300" d="M-2 0l27 135l940 1075l73 70v4q-41 -6 -82 -6h-524l-43 -225h-180l78 393h1042l-26 -133l-945 -1077l-73 -70v-4q41 6 82 6h555l47 233h178l-80 -401h-1069zM737 1606l39 200h189l-41 -200h-187z" />
<glyph unicode="&#x17c;" horiz-adv-x="1085" d="M-23 0l25 131l678 672l86 80v4q-41 -4 -98 -4h-324l-31 -166h-174l64 319h846l-27 -131l-676 -672q-20 -20 -42 -39l-34 -31q-12 -11 -12 -9v-4q43 4 100 4h367l33 165h172l-62 -319h-891zM561 1245l39 201h188l-40 -201h-187z" />
<glyph unicode="&#x17d;" horiz-adv-x="1300" d="M717 1546l-127 260h170l74 -166h4l141 166h186l-231 -260h-217zM-2 0l27 135l940 1075l73 70v4q-41 -6 -82 -6h-524l-43 -225h-180l78 393h1042l-26 -133l-945 -1077l-73 -70v-4q41 6 82 6h555l47 233h178l-80 -401h-1069z" />
<glyph unicode="&#x17e;" horiz-adv-x="1085" d="M541 1186l-127 260h170l73 -166h5l141 166h186l-231 -260h-217zM-23 0l25 131l678 672l86 80v4q-41 -4 -98 -4h-324l-31 -166h-174l64 319h846l-27 -131l-676 -672q-20 -20 -42 -39l-34 -31q-12 -11 -12 -9v-4q43 4 100 4h367l33 165h172l-62 -319h-891z" />
<glyph unicode="&#x17f;" horiz-adv-x="610" d="M117 0l172 885h-174l30 151h172l11 45q25 119 80 201t127.5 118t129 48t113.5 12l90 -6l-34 -162q-23 4 -60 4q-207 0 -248 -211l-211 -1085h-198z" />
<glyph unicode="&#x192;" horiz-adv-x="1056" d="M-150 -45q66 -10 130 -10q35 0 68.5 8t75.5 29.5t78 70.5t56 119l154 545h-168l30 160h183l65 227q33 115 92.5 193.5t131 113.5t129 47t116.5 12q39 0 88 -4t78 -8l29 -4l-35 -170q-98 14 -160 14q-211 0 -276 -227l-58 -194h240l-31 -160h-254l-163 -582 q-33 -115 -92.5 -192.5t-132 -111.5t-129 -46t-115.5 -12q-37 0 -78 3t-64 7l-22 4z" />
<glyph unicode="&#x218;" horiz-adv-x="1204" d="M369 -119h174q4 -20 4 -41q0 -96 -58.5 -176t-152.5 -125l-72 74q111 86 111 203q0 32 -6 65zM59 297l29 143h188l-22 -112q-16 -88 65.5 -129t204.5 -41q143 0 234.5 73.5t91.5 190.5q0 70 -47 121t-117 79l-152 62q-83 35 -153 73t-117 111.5t-47 173.5 q0 201 161 314.5t390 113.5q96 0 188.5 -22.5t160 -83.5t48.5 -147l-32 -156h-189l19 100q10 45 -26 76t-87 42t-109 11q-133 0 -223 -64.5t-90 -170.5q0 -78 65.5 -130.5t158.5 -86t185.5 -73.5t158 -123t65.5 -208q0 -209 -164 -334t-399 -125q-76 0 -154 16.5 t-150.5 51.5t-111.5 101.5t-23 152.5z" />
<glyph unicode="&#x219;" horiz-adv-x="995" d="M268 -119h174q4 -20 4 -41q0 -96 -58 -176t-152 -125l-72 74q111 86 110 203q0 32 -6 65zM10 231l19 103h174l-13 -68q-10 -51 32 -82.5t90 -39t102 -7.5q100 0 167.5 41t67.5 111q0 53 -51 91t-124 64.5t-146.5 58.5t-124.5 92t-51 148q0 150 130 234t310 84 q143 0 242.5 -57.5t78.5 -163.5l-22 -113h-174l14 74q10 55 -43 77.5t-125 22.5q-88 0 -151.5 -38t-63.5 -105q0 -53 51.5 -91t125 -62.5t146 -55.5t124 -89.5t51.5 -144.5q0 -152 -127 -246t-334 -94q-158 0 -279 64.5t-96 191.5z" />
<glyph unicode="&#x21a;" horiz-adv-x="1363" d="M446 -119h175q4 -20 4 -41q0 -96 -58.5 -176t-152.5 -125l-72 74q111 86 111 203q-1 32 -7 65zM276 0l31 160h180l220 1118h-340l-43 -225h-181l78 393h1241l-78 -393h-178l43 225h-338l-219 -1118h182l-30 -160h-568z" />
<glyph unicode="&#x21b;" horiz-adv-x="731" d="M215 -119h174q4 -20 4 -41q0 -96 -58.5 -176t-152.5 -125l-71 74q111 86 110 203q0 32 -6 65zM154 295q0 45 12 104l94 484h-174l31 153h178l55 285h193l-56 -285h250l-30 -153h-250l-92 -484q-8 -39 -9 -80q0 -164 172 -163l58 4l-33 -164q-33 -4 -66 -4 q-333 0 -333 303z" />
<glyph unicode="&#x2c6;" horiz-adv-x="1021" d="M76 1546l231 260h215l129 -260h-172l-73 164h-5l-139 -164h-186z" />
<glyph unicode="&#x2c7;" horiz-adv-x="1021" d="M270 1546l-127 260h170l74 -166h4l141 166h187l-232 -260h-217z" />
<glyph unicode="&#x2d8;" horiz-adv-x="1021" d="M381 1538q-117 0 -190.5 66.5t-51.5 173.5l6 28h150l-4 -26q-12 -61 16.5 -92t79.5 -31t93 31.5t55 93.5l4 24h151l-6 -28q-23 -119 -105.5 -179.5t-197.5 -60.5z" />
<glyph unicode="&#x2d9;" horiz-adv-x="1024" d="M291 1606l39 200h188l-41 -200h-186z" />
<glyph unicode="&#x2da;" horiz-adv-x="1024" d="M375 1513q-70 0 -118 38t-48 102q0 80 64.5 132t142.5 52q72 0 120 -39t48 -104q0 -78 -64.5 -129.5t-144.5 -51.5zM381 1599q39 0 64.5 27t25.5 68q0 57 -59 57q-35 0 -62.5 -27.5t-27.5 -68.5q0 -56 59 -56z" />
<glyph unicode="&#x2db;" horiz-adv-x="1021" d="M209 -274q0 172 252 315h131l-6 -41q-39 0 -125 -82t-86 -147q0 -43 35.5 -61.5t74.5 -20.5l-63 -140q-45 6 -88 20.5t-84 57t-41 99.5z" />
<glyph unicode="&#x2dc;" horiz-adv-x="1021" d="M35 1548q25 125 87 192.5t152 67.5q47 0 83 -21.5t53.5 -47t41 -47t50.5 -21.5q70 0 98 131h150q-20 -123 -84 -191.5t-154 -68.5q-47 0 -83 21.5t-53.5 47t-41 47t-49.5 21.5q-74 0 -101 -131h-149z" />
<glyph unicode="&#x2dd;" horiz-adv-x="1021" d="M346 1546l203 260h221l-248 -260h-176zM27 1546l190 260h195l-197 -260h-188z" />
<glyph unicode="&#x1e9e;" horiz-adv-x="1482" d="M-39 0l31 160h180l168 860q37 188 179.5 307t336.5 119h584l-27 -137l-348 -412l-43 -47v-4q139 -31 234.5 -120t95.5 -228q0 -211 -173 -362.5t-452 -151.5q-94 0 -203 20l33 178q68 -18 162 -18q203 0 312.5 93t109.5 228q0 207 -361 226l25 120l319 388l54 53v4 q-31 -6 -62 -6h-285q-104 0 -185 -72t-101 -176l-199 -1022h-385z" />
<glyph unicode="&#x2000;" horiz-adv-x="917" />
<glyph unicode="&#x2001;" horiz-adv-x="1837" />
<glyph unicode="&#x2002;" horiz-adv-x="917" />
<glyph unicode="&#x2003;" horiz-adv-x="1837" />
<glyph unicode="&#x2004;" horiz-adv-x="612" />
<glyph unicode="&#x2005;" horiz-adv-x="458" />
<glyph unicode="&#x2006;" horiz-adv-x="305" />
<glyph unicode="&#x2007;" horiz-adv-x="305" />
<glyph unicode="&#x2008;" horiz-adv-x="229" />
<glyph unicode="&#x2009;" horiz-adv-x="544" />
<glyph unicode="&#x200a;" horiz-adv-x="100" />
<glyph unicode="&#x2010;" horiz-adv-x="976" d="M166 496l33 176h598l-33 -176h-598z" />
<glyph unicode="&#x2011;" horiz-adv-x="976" d="M166 496l33 176h598l-33 -176h-598z" />
<glyph unicode="&#x2012;" horiz-adv-x="976" d="M166 496l33 176h598l-33 -176h-598z" />
<glyph unicode="&#x2013;" horiz-adv-x="1464" d="M172 504l29 160h1079l-31 -160h-1077z" />
<glyph unicode="&#x2014;" horiz-adv-x="1873" d="M172 504l29 160h1489l-31 -160h-1487z" />
<glyph unicode="&#x2018;" horiz-adv-x="485" d="M178 1022l232 446h153l-182 -446h-203z" />
<glyph unicode="&#x2019;" horiz-adv-x="475" d="M186 1022l183 446h200l-229 -446h-154z" />
<glyph unicode="&#x201a;" horiz-adv-x="528" d="M-76 -231l182 446h203l-231 -446h-154z" />
<glyph unicode="&#x201c;" horiz-adv-x="786" d="M479 1022l232 446h153l-182 -446h-203zM178 1022l232 446h153l-182 -446h-203z" />
<glyph unicode="&#x201d;" horiz-adv-x="776" d="M487 1022l183 446h200l-229 -446h-154zM186 1022l183 446h200l-229 -446h-154z" />
<glyph unicode="&#x201e;" horiz-adv-x="829" d="M408 215h202l-231 -446h-154zM106 215h203l-231 -446h-154z" />
<glyph unicode="&#x2020;" horiz-adv-x="870" d="M197 -102l190 981h-246l31 157h246l80 410h190l-78 -410h254l-30 -157h-254l-191 -981h-192z" />
<glyph unicode="&#x2021;" horiz-adv-x="892" d="M209 -102l86 452h-246l29 160h248l73 369h-247l30 157h248l78 410h192l-79 -410h253l-30 -157h-254l-72 -369h254l-31 -160h-254l-88 -452h-190z" />
<glyph unicode="&#x2022;" horiz-adv-x="858" d="M424 279q-133 0 -225.5 92t-92.5 225t92.5 225t225.5 92t225 -92t92 -225t-92 -225t-225 -92z" />
<glyph unicode="&#x2026;" horiz-adv-x="1585" d="M1106 0l41 215h209l-43 -215h-207zM573 0l43 215h207l-41 -215h-209zM43 0l41 215h209l-43 -215h-207z" />
<glyph unicode="&#x202f;" horiz-adv-x="366" />
<glyph unicode="&#x2030;" horiz-adv-x="2293" d="M489 864q-125 0 -199.5 74t-74.5 195q0 131 108.5 234t249.5 103q123 0 199 -75.5t76 -194.5q0 -131 -111 -233.5t-248 -102.5zM39 0l1366 1446h205l-1366 -1446h-205zM506 1016q70 0 125 54t55 126q0 55 -36 90t-93 35q-70 0 -126 -55.5t-56 -128.5q0 -53 36 -87t95 -34 zM1528 244q0 131 108.5 234.5t249.5 103.5q123 0 199 -76t76 -195q0 -131 -111 -233.5t-248 -102.5q-125 0 -199.5 74t-74.5 195zM799 244q0 129 108.5 233.5t249.5 104.5q123 0 199 -76t76 -195q0 -131 -111 -233.5t-246 -102.5q-125 0 -200.5 74t-75.5 195zM1690 248 q0 -53 35.5 -87t93.5 -34q72 0 126 53t54 127q0 55 -36 90t-93 35q-68 0 -124 -56t-56 -128zM961 248q0 -53 35.5 -87t93.5 -34q72 0 126 53t54 127q0 55 -35 90t-92 35q-70 0 -126 -56t-56 -128z" />
<glyph unicode="&#x2039;" horiz-adv-x="724" d="M344 158l-262 424l391 417h209l-410 -430l260 -411h-188z" />
<glyph unicode="&#x203a;" horiz-adv-x="731" d="M35 158l409 430l-260 411h189l262 -424l-391 -417h-209z" />
<glyph unicode="&#x2044;" horiz-adv-x="305" d="M-225 0h-164l969 1446h161z" />
<glyph unicode="&#x205f;" horiz-adv-x="458" />
<glyph unicode="&#x2070;" horiz-adv-x="827" d="M481 846q-274 0 -274 299q0 96 21.5 199.5t66.5 205t129 167t192 65.5q274 0 275 -301q0 -96 -22.5 -199.5t-67.5 -205t-128 -166t-192 -64.5zM483 987q84 0 143.5 85t83 190.5t23.5 207.5q0 168 -121 168q-84 0 -143 -85t-83 -191.5t-24 -210.5q0 -164 121 -164z" />
<glyph unicode="&#x2074;" horiz-adv-x="806" d="M520 866l43 224h-424l19 98l520 573h168l-107 -551h125l-22 -120h-127l-43 -224h-152zM322 1210h266l57 299l27 93h-6q-27 -45 -60 -80l-284 -308v-4z" />
<glyph unicode="&#x2075;" horiz-adv-x="765" d="M426 846q-82 0 -155.5 31.5t-106.5 64.5l-33 33l94 100l27 -25q16 -15 69.5 -41t104.5 -26q90 0 151.5 55.5t61.5 137.5q0 68 -44 107.5t-118 39.5q-88 0 -155 -43l-80 31l135 450h487l-45 -231h-127l21 108h-234l-51 -180l-16 -39l4 -2q45 20 112 21q121 0 195 -73 t74 -183q0 -133 -107.5 -234.5t-263.5 -101.5z" />
<glyph unicode="&#x2076;" horiz-adv-x="794" d="M489 846q-133 0 -211.5 87t-78.5 238q0 123 57 260.5t177 244t267 106.5q53 0 102.5 -12.5t69.5 -24.5l23 -10l-66 -125q-55 29 -135 28q-92 0 -168.5 -72.5t-117.5 -183.5h4q74 63 174 64q111 0 179.5 -68.5t68.5 -177.5q0 -152 -103 -253t-242 -101zM496 987 q80 0 131 62.5t51 144.5q0 59 -36 95t-99 36q-74 0 -130.5 -47t-56.5 -113q0 -72 38.5 -125t101.5 -53z" />
<glyph unicode="&#x2077;" horiz-adv-x="731" d="M164 866l512 727l41 45v4q-29 -4 -55 -4h-269l-20 -108h-127l43 231h624l-18 -104l-561 -791h-170z" />
<glyph unicode="&#x2078;" horiz-adv-x="811" d="M471 846q-121 0 -209 63.5t-88 173.5q0 152 195 283q-72 59 -72 145q0 127 100.5 199t227.5 72q117 0 190.5 -58.5t73.5 -152.5q0 -137 -162 -271q98 -68 98 -167q0 -123 -107.5 -205t-246.5 -82zM621 1358q117 94 116 192q0 47 -37.5 73t-89.5 26q-61 0 -112.5 -35 t-51.5 -98q0 -20 8.5 -38t17.5 -29t30.5 -26.5t34.5 -21.5l43 -22q31 -15 41 -21zM477 979q72 0 132.5 44t60.5 107q0 25 -10.5 45.5t-34 39t-43 28.5l-57.5 28.5t-56 28.5q-139 -92 -139 -198q0 -55 44 -89t103 -34z" />
<glyph unicode="&#x2079;" horiz-adv-x="796" d="M371 846q-53 0 -103.5 11t-72.5 24l-23 12l70 123q53 -27 133 -27q92 0 169 73t118 183h-5q-78 -63 -174 -63q-111 0 -179 68.5t-68 176.5q0 152 102 253.5t242 101.5q133 0 211.5 -87t78.5 -239q0 -123 -57 -260t-177 -243.5t-265 -106.5zM526 1303q74 0 130.5 47 t56.5 112q0 72 -38 125t-102 53q-80 0 -132 -62t-52 -146q0 -57 35.5 -93t101.5 -36z" />
<glyph unicode="&#x2080;" horiz-adv-x="827" d="M252 -342q-274 0 -275 299q0 96 21.5 199.5t67 205t129.5 167t192 65.5q274 0 275 -301q0 -96 -23 -199.5t-68 -205t-127.5 -166t-191.5 -64.5zM254 -201q84 0 143.5 85t83 190.5t23.5 208.5q0 168 -121 168q-84 0 -143.5 -85t-83 -191.5t-23.5 -211.5q0 -164 121 -164z " />
<glyph unicode="&#x2081;" horiz-adv-x="688" d="M-102 -322l24 127h211l96 496l19 74h-4q-20 -29 -51 -51l-101 -82l-76 102l283 229h137l-149 -768h209l-25 -127h-573z" />
<glyph unicode="&#x2082;" horiz-adv-x="776" d="M-98 -322q2 100 44 181.5t103.5 129.5t133 94t132 79t101.5 80t41 102q0 47 -34 78t-87 31q-47 0 -95 -25t-73 -49l-27 -25l-90 101q14 16 39 38.5t102.5 61.5t153.5 39q119 0 194.5 -64.5t75.5 -171.5q0 -88 -49 -158.5t-121.5 -115.5t-147.5 -85t-136.5 -89t-77.5 -105 h326l20 105h129l-45 -232h-612z" />
<glyph unicode="&#x2083;" horiz-adv-x="770" d="M209 -344q-92 0 -168 34t-107 68l-30 33l100 100q8 -10 23.5 -25.5t69 -42t112.5 -26.5q78 0 136 53.5t58 129.5q0 55 -46 86.5t-109 31.5h-64l-20 74l239 236l54 41v6q-29 -6 -62 -6h-200l-21 -109h-129l45 231h569l-18 -98l-276 -266q76 -16 135 -72.5t59 -152.5 q0 -127 -101.5 -226.5t-248.5 -99.5z" />
<glyph unicode="&#x2084;" horiz-adv-x="806" d="M289 -322l43 224h-424l18 98l520 573h168l-106 -550h125l-23 -121h-127l-43 -224h-151zM90 23h266l58 299l26 92h-6q-27 -45 -59 -80l-285 -307v-4z" />
<glyph unicode="&#x2085;" horiz-adv-x="763" d="M195 -342q-82 0 -156 31.5t-107 64.5l-32 33l94 100l26 -25q16 -15 69.5 -41t105.5 -26q90 0 151.5 55.5t61.5 137.5q0 68 -44.5 107.5t-117.5 39.5q-88 0 -156 -43l-80 31l135 450h488l-45 -231h-127l20 109h-233l-51 -181l-17 -39l4 -2q45 20 113 21q121 0 194.5 -73 t73.5 -183q0 -133 -107 -234.5t-263 -101.5z" />
<glyph unicode="&#x2086;" horiz-adv-x="794" d="M258 -342q-133 0 -212 87t-79 239q0 123 57.5 260t177.5 243.5t267 106.5q53 0 102.5 -12.5t71.5 -24.5l21 -10l-66 -125q-55 29 -135 29q-92 0 -169 -73t-118 -183h4q74 63 174 63q111 0 179.5 -68.5t68.5 -177.5q0 -152 -102.5 -253t-241.5 -101zM264 -201 q80 0 131 62.5t51 144.5q0 59 -35.5 95t-99.5 36q-74 0 -130 -47t-56 -113q0 -72 38 -125t101 -53z" />
<glyph unicode="&#x2087;" horiz-adv-x="733" d="M-68 -324l512 727l41 46v4q-29 -4 -55 -4h-268l-21 -109h-127l43 231h625l-18 -104l-562 -791h-170z" />
<glyph unicode="&#x2088;" horiz-adv-x="811" d="M242 -340q-121 0 -209 63.5t-88 174.5q0 152 194 282q-72 59 -71 146q0 127 100 198.5t227 71.5q117 0 190.5 -58.5t73.5 -152.5q0 -137 -161 -270q98 -68 98 -168q0 -123 -107.5 -205t-246.5 -82zM391 172q117 94 117 193q0 47 -38 72.5t-89 25.5q-61 0 -112.5 -35 t-51.5 -98q0 -20 8 -38t17.5 -29t31 -26.5t33.5 -21.5l43 -21q31 -16 41 -22zM248 -207q72 0 132 44t60 108q0 25 -10 45t-33.5 38.5t-43 29t-57.5 28.5t-56 29q-139 -92 -140 -199q0 -55 44.5 -89t103.5 -34z" />
<glyph unicode="&#x2089;" horiz-adv-x="796" d="M139 -342q-53 0 -103 11.5t-73 23.5l-22 12l69 123q53 -27 133 -27q92 0 169 73t118 183h-4q-78 -63 -174 -63q-111 0 -179.5 68.5t-68.5 177.5q0 152 102.5 253t241.5 101q133 0 212 -87t79 -239q0 -123 -57.5 -260t-177.5 -243.5t-265 -106.5zM295 115q74 0 130 47 t56 112q0 72 -37.5 125.5t-101.5 53.5q-80 0 -132 -62.5t-52 -146.5q0 -57 35.5 -93t101.5 -36z" />
<glyph unicode="&#x20ac;" horiz-adv-x="1236" d="M76 512l24 125h113q6 80 29 188h-109l25 127h127q104 231 313 374.5t455 143.5q59 0 117.5 -8t86.5 -16l29 -8l-80 -168q-76 20 -157 20q-170 0 -314.5 -92t-226.5 -246h577l-51 -127h-581q-25 -98 -31 -188h543l-52 -125h-479q16 -158 119.5 -256t284.5 -98q45 0 93 7 t73 15l24 6l6 -180q-90 -31 -213 -31q-254 0 -419.5 147.5t-184.5 389.5h-141z" />
<glyph unicode="&#x2122;" horiz-adv-x="2119" d="M1055 545l71 901h144l213 -471q16 -37 26 -86h4q12 49 29 86l213 471h143l70 -901h-156l-40 538l2 62h-5l-194 -434h-125l-195 434h-4l2 -62l-43 -538h-155zM524 545v764h-313v137h780v-137h-313v-764h-154z" />
<glyph unicode="&#x2212;" horiz-adv-x="1255" d="M90 504v160h1059v-160h-1059z" />
<glyph unicode="&#x221e;" horiz-adv-x="1021" d="M532.5 342q-153.5 0 -263 109.5t-109.5 263t109.5 262t262.5 108.5q156 0 263.5 -107.5t107.5 -262.5q0 -154 -108.5 -263.5t-262 -109.5z" />
<glyph unicode="&#x2248;" horiz-adv-x="1255" d="M193 657l-84 121q141 150 309 150q102 0 220 -72t185 -72q121 0 226 113l84 -121q-143 -147 -310 -147q-102 0 -220 71.5t-185 71.5q-114 0 -225 -115zM193 272l-84 119q141 150 309 150q102 0 220 -72t185 -72q121 0 226 113l84 -121q-143 -147 -310 -147 q-102 0 -220 71.5t-185 71.5q-116 0 -225 -113z" />
<glyph unicode="&#x2260;" horiz-adv-x="1255" d="M244 150l112 159h-225v160h334l162 227h-496v160h604l166 236l105 -72l-117 -164h219v-160h-326l-164 -227h490v-160h-596l-162 -229z" />
<glyph unicode="&#x2264;" horiz-adv-x="1255" d="M98 516v135l957 426v-182l-733 -309v-4l733 -310v-182zM102 -195h953v-159h-953v159z" />
<glyph unicode="&#x2265;" horiz-adv-x="1255" d="M199 90v182l731 310v4l-731 309v182l954 -426v-135zM199 -195h952v-159h-952v159z" />
<glyph unicode="&#xe000;" horiz-adv-x="1035" d="M0 1035h1035v-1035h-1035v1035z" />
<glyph horiz-adv-x="686" d="M125 -119h174q4 -20 4 -41q0 -96 -58.5 -176t-152.5 -125l-72 74q111 86 111 203q0 32 -6 65z" />
<glyph horiz-adv-x="2314" d="M223 -10v311l-258 148v569l258 145v310l543 290l274 -145l271 145l542 -290v-310l254 -145v-569l-254 -148v-311l-542 -289l-271 145l-274 -145zM305 61l488 -258l247 136l242 -136l487 258v285l234 131v510l-234 135v279l-487 258l-242 -131l-247 131l-488 -258v-279 l-233 -135v-510l233 -131v-285zM375 131v248l-203 123v461l203 118v252l440 234l225 -121l220 121l438 -234v-252l205 -118v-461l-205 -123v-248l-438 -233l-220 118l-225 -118zM776 186h162v418h422v141h-422v338h309q29 0 39 -12t10 -41v-67h150v151q0 57 -24.5 83 t-86.5 26h-678v-140h119v-897z" />
<glyph d="M68 453q0 119 20.5 248.5t69.5 269t120.5 249t188.5 180t258 70.5q426 0 426 -477q0 -119 -20.5 -249t-69.5 -269t-121 -248.5t-188.5 -180.5t-257.5 -71q-426 1 -426 478zM274 457q0 -299 224 -299q115 0 206 87t140 219t73.5 267t24.5 254q0 303 -223 303 q-111 0 -200 -84t-140 -213t-78 -268t-27 -266z" />
<glyph d="M88 0l31 168h319l183 926l22 96h-4q-29 -35 -74 -72l-174 -145l-102 135l416 338h182l-250 -1278h315l-34 -168h-830z" />
<glyph d="M-6 0q2 129 53 237.5t131 184.5t176.5 143.5t191.5 126t175 115.5t129 129t49 154q0 92 -59.5 146t-159.5 54q-55 0 -109.5 -19.5t-94.5 -47t-70.5 -56t-47.5 -49.5l-16 -18l-135 108l22 28q14 17 63.5 63.5t104 80t136 62t165.5 28.5q186 0 301 -98t115 -262 q0 -115 -60.5 -216t-151.5 -171t-201 -141l-205 -129q-96 -57 -169 -132t-89 -153h573l39 192h178l-72 -360h-962z" />
<glyph d="M6 168l119 139l15.5 -16t42 -36t67.5 -45.5t90 -35.5t111 -16q145 0 253.5 94t108.5 229q0 104 -77 161.5t-197 57.5l-90 -4l-27 107l430 428l61 49v4q-45 -6 -73 -6h-389l-37 -184h-178l69 352h883l-29 -141l-471 -463q57 -8 111.5 -28.5t108 -58.5t86 -104.5 t32.5 -152.5q0 -209 -165 -366t-410 -157q-244 0 -416 162z" />
<glyph d="M-16 387l24 127l842 932h240l-177 -895h197l-31 -164h-196l-76 -387h-201l76 387h-698zM246 551h469l110 567l31 111h-6q-33 -51 -72 -96l-532 -578v-4z" />
<glyph d="M18 164l119 133q4 -6 13.5 -15.5t39 -33t62.5 -42t85 -33.5t107 -15q152 0 268.5 100t116.5 246q0 115 -76.5 180.5t-201.5 65.5q-66 0 -131.5 -17.5t-97.5 -36.5l-33 -16l-115 45l215 721h746l-70 -352h-178l37 184h-392l-98 -320l-28 -81h4q82 41 198 41 q190 0 311 -113t121 -297q0 -219 -179 -376t-423 -157q-80 0 -153.5 19.5t-119.5 47.5t-81 55.5t-51 45.5z" />
<glyph d="M80 502q0 115 32.5 243.5t102.5 258t164 232.5t228 168.5t286 65.5q176 0 287 -61l-86 -166q-84 47 -205 47q-190 0 -331.5 -144.5t-207.5 -346.5h4q57 63 148.5 100t183.5 37q184 0 290.5 -109.5t106.5 -281.5q0 -221 -151.5 -395.5t-390.5 -174.5q-209 0 -335 142.5 t-126 384.5zM287 479q0 -127 72.5 -224t191.5 -97q137 0 231.5 110.5t94.5 263.5q0 106 -64.5 170t-185.5 64q-127 0 -233.5 -83t-106.5 -204z" />
<glyph d="M109 0l835 1214q31 43 55 66v4q-37 -6 -84 -6h-497l-37 -184h-178l69 352h992l-27 -139l-907 -1307h-221z" />
<glyph d="M37 356q0 250 323 451q-133 98 -133 244q0 164 139.5 291.5t366.5 127.5q193 0 304.5 -89t111.5 -240q0 -215 -258 -439q160 -106 160 -266q0 -188 -162 -324.5t-400 -136.5q-203 0 -327.5 104.5t-124.5 276.5zM750 778q31 25 67.5 63t82.5 119.5t46 155.5 q0 82 -58.5 130t-160.5 48q-127 0 -212 -70.5t-85 -170.5q0 -41 15.5 -74t57.5 -63.5t65.5 -45t94.5 -49.5zM248 379q0 -104 71.5 -164.5t182.5 -60.5q131 0 234.5 76.5t103.5 199.5q0 43 -19.5 79t-60.5 65.5t-77 49t-98.5 49t-92.5 46.5q-244 -154 -244 -340z" />
<glyph d="M43 39l84 164q84 -45 201 -45q190 0 332.5 144t207.5 347h-4q-57 -61 -148 -98t-186 -37q-184 0 -290.5 108.5t-106.5 280.5q0 141 64.5 269t191.5 213t287 85q211 0 337 -142t126 -384q0 -113 -34 -242t-102.5 -258t-164 -233.5t-229.5 -170t-285 -65.5q-78 0 -148 16.5 t-102 33.5zM588 684q127 0 235.5 82t108.5 201q0 127 -73 225t-189 98q-139 0 -234.5 -110.5t-95.5 -266.5q0 -104 64.5 -166.5t183.5 -62.5z" />
<glyph horiz-adv-x="958" d="M178 625l33 176h598l-33 -176h-598z" />
<glyph horiz-adv-x="657" d="M250 -133q-104 262 -105 549q0 653 422 1151h183q-428 -530 -428 -1155q0 -281 96 -545h-168z" />
<glyph horiz-adv-x="655" d="M-49 -133q426 537 426 1155q0 289 -96 545h168q104 -260 104 -549q0 -649 -422 -1151h-180z" />
<glyph horiz-adv-x="647" d="M57 -133l332 1700h338l-29 -150h-166l-270 -1399h166l-31 -151h-340z" />
<glyph horiz-adv-x="649" d="M-6 18h164l270 1399h-166l31 150h340l-332 -1700h-336z" />
<glyph horiz-adv-x="700" d="M164 129q0 39 10 104l35 183q6 37 6 61q0 68 -34 109t-66 49l-35 6l35 176q6 0 18 2t45 16.5t60.5 36t54 66.5t39.5 104l37 187q72 367 444 342l-29 -154q-29 4 -60.5 -2t-70.5 -24.5t-70.5 -67.5t-45.5 -121l-43 -223q-18 -90 -72.5 -152.5t-99.5 -81.5l-46 -16v-4 q14 -6 34 -18.5t53.5 -65.5t33.5 -125q0 -29 -6 -61l-43 -222q-8 -35 -8 -71q0 -156 172 -144l-29 -153q-20 -2 -49 -2q-35 0 -72.5 9t-87 33.5t-80 82t-30.5 141.5z" />
<glyph horiz-adv-x="700" d="M-41 16q41 -6 85 5.5t94 64.5t67 145l49 244q10 59 36.5 107.5t56.5 74t58.5 43t47.5 23.5l18 6v4q-14 6 -33.5 18.5t-53.5 64.5t-34 122q0 29 6 61l39 203q8 53 8 72q0 49 -18 80.5t-49 45t-55.5 16.5t-51.5 1l31 152q45 6 96.5 -2t103.5 -34t86 -84t34 -142 q0 -49 -13 -105l-30 -164q-6 -35 -7 -59q0 -129 115 -160l23 -4l-35 -176q-6 0 -18.5 -2t-45 -16.5t-60.5 -37t-54.5 -67.5t-38.5 -104l-41 -205q-68 -346 -400 -346l-47 4z" />
<glyph horiz-adv-x="1581" d="M98 600q0 231 125 434t337 324t456 121q223 0 335.5 -98.5t112.5 -252.5q0 -43 -10 -94l-106 -553h147l-31 -149h-534q-174 0 -276.5 96t-102.5 238q0 176 144.5 307t369.5 131h213q2 20 2 37q0 74 -77 124t-208 50q-184 0 -346 -102.5t-256 -267.5t-94 -345 q0 -209 129 -340t350 -131l-30 -160q-287 0 -468.5 175t-181.5 456zM754 676q0 -86 53 -140.5t143 -54.5h207l94 486h-202q-119 0 -207 -89t-88 -202z" />
<glyph horiz-adv-x="1155" d="M774 281l-262 424l424 417h211l-445 -430l261 -411h-189zM367 281l-263 424l392 417h209l-410 -430l260 -411h-188z" />
<glyph horiz-adv-x="1159" d="M487 281l410 430l-262 411h188l264 -424l-391 -417h-209zM43 281l446 430l-262 411h189l264 -424l-424 -417h-213z" />
<glyph horiz-adv-x="727" d="M367 281l-263 424l392 417h209l-410 -430l260 -411h-188z" />
<glyph horiz-adv-x="733" d="M61 281l410 430l-262 411h188l265 -424l-394 -417h-207z" />
<glyph horiz-adv-x="1449" d="M184 627l31 159h1077l-28 -159h-1080z" />
<glyph horiz-adv-x="1859" d="M184 627l31 159h1487l-29 -159h-1489z" />
<glyph horiz-adv-x="561" d="M172 600l41 217h207l-41 -217h-207z" />
<glyph horiz-adv-x="886" d="M543 1245l41 201h207l-41 -201h-207zM12 303q0 100 45 183t112 139.5t135.5 106.5t123.5 110.5t68 126.5l16 80h195l-19 -93q-18 -90 -72.5 -165.5t-119.5 -126.5l-127 -100q-61 -48 -103.5 -107.5t-42.5 -128.5q0 -74 53.5 -121t143.5 -47q59 0 121.5 22.5t95.5 42.5 l33 23l88 -154l-51 -33q-33 -20 -128.5 -53t-185.5 -33q-168 0 -274.5 89t-106.5 239z" />
<glyph horiz-adv-x="620" d="M330 1245l39 201h206l-40 -201h-205zM88 0l219 1049h178l-190 -1049h-207z" />
<glyph horiz-adv-x="851" d="M442 406q-131 0 -223 93t-92 224t92 224t223 93t224.5 -92t93.5 -225q0 -131 -93.5 -224t-224.5 -93z" />
<glyph horiz-adv-x="1232" d="M98 420q0 125 41 252t114 232.5t187.5 172t249.5 66.5q213 0 318.5 -126t105.5 -323q0 -125 -40 -251t-112.5 -231.5t-187.5 -171t-252 -65.5q-215 0 -319.5 124t-104.5 321zM301 426q0 -123 56.5 -201t168.5 -78q170 0 277.5 172.5t107.5 368.5q0 125 -56 204t-169 79 q-117 0 -208 -89t-134 -211t-43 -245z" />
<glyph horiz-adv-x="956" d="M8 0l33 162h311l121 624l25 121h-4q-37 -31 -91 -59l-202 -109l-68 148l422 231h176l-184 -956h280l-30 -162h-789z" />
<glyph horiz-adv-x="1136" d="M20 0l27 137q184 106 305 185t232.5 168.5t165 168t53.5 154.5q0 78 -57.5 119t-145.5 41q-76 0 -161 -40t-132 -79l-45 -39l-86 137q8 8 22.5 20.5t61.5 45.5t96.5 58.5t124 46t146.5 20.5q178 0 279.5 -84t101.5 -223q0 -186 -164 -341t-494 -335v-4q43 6 123 6h465 l-33 -162h-885z" />
<glyph horiz-adv-x="1069" d="M-78 -80l117 129q12 -16 33.5 -38.5t100.5 -61.5t169 -39q135 0 240.5 86t105.5 217q0 92 -74.5 146.5t-210.5 54.5l-81 -4l-23 104l403 391q16 16 36 31.5t30 21.5l10 9v4q-45 -6 -104 -6h-326l-33 -172h-170l64 325h833l-24 -129l-457 -434q129 -18 231.5 -97 t102.5 -235q0 -199 -162 -342t-393 -143q-246 0 -393 153z" />
<glyph horiz-adv-x="1198" d="M-47 74l22 121l813 923h238l-172 -887h209l-33 -157h-207l-59 -312h-195l60 312h-676zM209 231h450l107 541l35 139h-6q-45 -70 -93 -123l-493 -555v-2z" />
<glyph horiz-adv-x="1067" d="M-72 -76l113 133q12 -14 35.5 -36.5t99.5 -59.5t158 -37q143 0 258 86t115 236q0 104 -77 163.5t-194 59.5q-135 0 -252 -63l-106 40l203 672h718l-63 -325h-174l33 172h-371l-92 -299l-29 -70h4q82 33 193 33q178 0 293.5 -98.5t115.5 -270.5q0 -225 -173 -367.5 t-402 -142.5q-76 0 -144.5 18.5t-114.5 43t-81 50t-51 44.5z" />
<glyph horiz-adv-x="1214" d="M96 467q0 139 53.5 293.5t148.5 295t252 232.5t341 92q172 0 287 -61l-91 -152q-82 41 -196 41q-188 0 -328.5 -136t-204.5 -329h4q59 61 149.5 96t186.5 35q180 0 289 -103t109 -267q0 -205 -154 -367t-389 -162q-207 0 -332 132.5t-125 359.5zM299 444 q0 -117 70.5 -207t191.5 -90q139 0 235.5 99.5t96.5 245.5q0 100 -65.5 159.5t-188.5 59.5q-133 0 -236.5 -78t-103.5 -189z" />
<glyph horiz-adv-x="1073" d="M12 -238l795 1133l59 72v4q-39 -6 -86 -6h-463l-32 -172h-172l63 325h944l-24 -131l-863 -1225h-221z" />
<glyph horiz-adv-x="1202" d="M57 340q0 221 308 418q-125 92 -125 223q0 156 134 277.5t351 121.5q190 0 301 -83t111 -226q0 -188 -242 -416q154 -96 154 -243q0 -172 -159 -304.5t-384 -132.5q-201 0 -325 100.5t-124 264.5zM754 733q184 150 184 314q0 76 -58.5 119.5t-160.5 43.5 q-123 0 -203 -65.5t-80 -155.5q0 -27 8.5 -50.5t29 -45t38.5 -36.5t54 -34l58 -29q22 -11 66 -31t64 -30zM260 356q0 -94 71.5 -151.5t178.5 -57.5q125 0 229.5 75t104.5 186q0 31 -15.5 59.5t-36 48t-61.5 44t-68 37.5l-82 38l-81 37q-240 -138 -240 -316z" />
<glyph horiz-adv-x="1212" d="M96 -51q82 -39 195 -39q188 0 327.5 136t202.5 329h-4q-59 -61 -149 -96t-187 -35q-178 0 -285.5 102.5t-107.5 265.5q0 207 152.5 369t388.5 162q207 0 330.5 -131t123.5 -361q0 -109 -31.5 -231.5t-98 -243.5t-159 -219t-223.5 -158.5t-280 -60.5q-76 0 -146.5 15.5 t-103.5 29.5l-31 16zM539 406q133 0 238.5 77.5t105.5 190.5q0 117 -72 207t-193 90q-137 0 -232 -99.5t-95 -244.5q0 -102 64.5 -161.5t183.5 -59.5z" />
<glyph d="M70 420q0 125 41 252t113.5 232.5t187 172t250.5 66.5q213 0 318 -126t105 -323q0 -125 -39.5 -251t-112.5 -231.5t-187.5 -171t-251.5 -65.5q-215 0 -319.5 124t-104.5 321zM272 426q0 -123 56.5 -201t169.5 -78q170 0 277.5 172.5t107.5 368.5q0 125 -56.5 204 t-169.5 79q-117 0 -208 -89t-134 -211t-43 -245z" />
<glyph d="M117 0l33 162h311l121 624l24 121h-4q-37 -31 -90 -59l-203 -109l-67 148l422 231h176l-185 -956h281l-31 -162h-788z" />
<glyph d="M39 0l27 137q184 106 305 185t232.5 168.5t164.5 168t53 154.5q0 78 -57 119t-146 41q-76 0 -160.5 -40t-129.5 -79l-47 -39l-86 137q8 8 22 20.5t61.5 45.5t96.5 58.5t123.5 46t146.5 20.5q178 0 279.5 -84t101.5 -223q0 -186 -164 -341t-493 -335v-4q43 6 123 6h464 l-32 -162h-885z" />
<glyph d="M-23 -78l117 129q12 -16 34 -38.5t100.5 -61.5t168.5 -39q135 0 239.5 86t104.5 217q0 92 -73.5 146.5t-208.5 54.5l-82 -4l-23 104l402 389q16 16 35.5 31.5t29.5 21.5l10 9v4q-45 -6 -104 -6h-324l-32 -172h-170l63 325h832l-25 -129l-455 -432q55 -8 107.5 -27.5 t106 -56.5t86 -101.5t32.5 -146.5q0 -199 -161.5 -342t-391.5 -143q-246 0 -393 154z" />
<glyph d="M-59 74l22 121l813 923h238l-172 -887h209l-33 -157h-207l-59 -312h-195l59 312h-675zM197 231h450l107 541l34 139h-6q-45 -70 -92 -123l-493 -555v-2z" />
<glyph d="M-18 -76l112 133q12 -14 36 -36.5t99.5 -59.5t157.5 -37q143 0 258 86t115 236q0 104 -77 163.5t-194 59.5q-135 0 -251 -63l-107 40l203 672h719l-64 -325h-174l33 172h-371l-92 -299l-29 -70h4q82 33 193 33q178 0 294 -98.5t116 -270.5q0 -225 -173.5 -367.5 t-402.5 -142.5q-76 0 -144.5 18.5t-114.5 43t-81 50t-51 44.5z" />
<glyph d="M76 467q0 139 53 293.5t148.5 295t252 232.5t340.5 92q172 0 287 -61l-90 -152q-82 41 -197 41q-188 0 -328.5 -136t-203.5 -329h4q59 61 149.5 96t186.5 35q180 0 288.5 -103t108.5 -267q0 -205 -153.5 -367t-389.5 -162q-207 0 -331.5 132.5t-124.5 359.5zM279 444 q0 -117 70.5 -207t191.5 -90q139 0 235 99.5t96 245.5q0 100 -65.5 159.5t-188.5 59.5q-133 0 -236 -78t-103 -189z" />
<glyph d="M63 -238l795 1133l60 72v4q-39 -6 -87 -6h-462l-33 -172h-172l63 325h944l-24 -131l-862 -1225h-222z" />
<glyph d="M43 340q0 221 307 418q-125 92 -125 223q0 156 134.5 277.5t351.5 121.5q190 0 300.5 -83t110.5 -226q0 -188 -241 -416q154 -96 153 -243q0 -172 -158.5 -304.5t-383.5 -132.5q-201 0 -325 100.5t-124 264.5zM739 733q184 150 185 314q0 76 -58.5 119.5t-160.5 43.5 q-123 0 -203 -65.5t-80 -155.5q0 -27 8 -50.5t28.5 -45t39 -36.5t54.5 -34l57 -29q22 -11 66 -31t64 -30zM246 356q0 -94 71.5 -151.5t178.5 -57.5q125 0 229 75t104 186q0 31 -15 59.5t-35.5 48t-61.5 44t-69 37.5l-82 38l-81 37q-239 -138 -239 -316z" />
<glyph d="M78 -51q82 -39 194 -39q188 0 327.5 136t203.5 329h-4q-59 -61 -149.5 -96t-186.5 -35q-178 0 -285.5 102.5t-107.5 265.5q0 207 152.5 369t387.5 162q207 0 331 -131t124 -361q0 -109 -32 -231.5t-98.5 -243.5t-158.5 -219t-223 -158.5t-281 -60.5q-76 0 -146.5 15.5 t-100.5 29.5l-33 16zM520 406q133 0 238.5 77.5t105.5 190.5q0 117 -71.5 207t-192.5 90q-137 0 -232.5 -99.5t-95.5 -244.5q0 -102 64.5 -161.5t183.5 -59.5z" />
<glyph horiz-adv-x="1013" d="M-16 186l108 129q14 -16 41 -41.5t113 -64.5t176 -33q98 0 175 44t77 120q0 53 -53.5 95t-129 75t-151.5 70.5t-129 105.5t-53 156q0 137 113.5 233t293.5 113l37 194h146l-39 -196q82 -10 152.5 -42t101.5 -59l28 -26l-106 -141q-10 10 -32 26.5t-91.5 43t-147.5 26.5 q-98 0 -173.5 -42t-75.5 -124q0 -55 53 -98t129 -74t151.5 -69t129 -104.5t53.5 -158.5q0 -137 -122 -235.5t-298 -108.5l-37 -209h-145l40 215q-100 16 -184 61.5t-119 82.5z" />
<glyph horiz-adv-x="1089" d="M369 -55l34 174q-160 31 -252 142.5t-92 273.5q0 221 157 383.5t382 193.5l33 170h149l-35 -170q92 -10 170 -50t109 -75l33 -35l-111 -133l-28 33q-18 20 -88 53t-152 33q-170 0 -293 -115.5t-123 -277.5q0 -115 79 -187.5t210 -72.5q80 0 158.5 31.5t117.5 64.5l37 31 l68 -154q-16 -16 -48 -39.5t-131.5 -65.5t-201.5 -47l-33 -161h-149z" />
<glyph horiz-adv-x="1202" d="M-27 0l33 170h162l63 324h-129l27 139h129l35 180q37 182 179 288.5t335 106.5q201 0 336 -110l10 -8l-111 -136q-92 76 -247 76q-115 0 -199 -64.5t-104 -158.5l-35 -174h444l-27 -139h-444l-61 -324h665l-33 -170h-1028z" />
<glyph horiz-adv-x="1216" d="M102 287l27 131h338l8 45l-49 117h-266l24 131h193l-195 475h224l139 -377l55 -184h4q63 102 121 184l287 377h235l-377 -475h197l-27 -131h-272l-92 -117l-8 -45h342l-25 -131h-342l-55 -287h-201l55 287h-340z" />
<glyph horiz-adv-x="1171" d="M-115 -76q66 -12 129 -12q35 0 69 8t76 29.5t77.5 71t56.5 118.5l135 484h-168l31 159h184l64 232q33 117 92 195.5t129.5 113.5t127 47t116.5 12q39 0 88 -5t77 -9l29 -4l-35 -168q-98 14 -159 14q-211 0 -277 -227l-57 -201h239l-32 -159h-254l-146 -519 q-27 -92 -73 -161.5t-94 -107.5t-106.5 -60.5t-101.5 -28.5t-88 -6l-164 16z" />
<glyph horiz-adv-x="1171" d="M47 393l23 117h135q2 68 26 158h-127l23 118h143q84 184 258 303t420 119q61 0 117.5 -8t83.5 -16l27 -8l-72 -156q-72 20 -154 20q-158 0 -276.5 -70.5t-181.5 -183.5h514l-50 -118h-522q-25 -70 -28 -158h497l-47 -117h-430q20 -113 111.5 -180.5t246.5 -67.5 q45 0 90.5 7.5t67.5 15.5l25 6l6 -170q-88 -29 -195 -29q-248 0 -392 117t-173 301h-166z" />
<glyph horiz-adv-x="823" d="M420 530q-274 0 -275 299q0 96 21.5 200t67 205t129 166.5t192.5 65.5q274 0 274 -301q0 -96 -22.5 -199.5t-67.5 -205t-127.5 -166t-191.5 -64.5zM422 672q84 0 143.5 85t83 190.5t23.5 207.5q0 168 -121 168q-84 0 -143.5 -85t-83 -191.5t-23.5 -210.5q0 -164 121 -164 z" />
<glyph horiz-adv-x="698" d="M76 551l24 127h211l97 496l18 73h-4q-20 -29 -51 -51l-101 -82l-75 103l282 229h137l-149 -768h209l-25 -127h-573z" />
<glyph horiz-adv-x="776" d="M72 551q2 100 44 181t103.5 129t133 94t132 79t101.5 80t41 103q0 47 -34 77.5t-87 30.5q-47 0 -95.5 -24.5t-74.5 -49.5l-25 -24l-90 100q14 16 39 39t102.5 61.5t153.5 38.5q119 0 194.5 -64.5t75.5 -170.5q0 -88 -49 -159t-121.5 -116t-147.5 -85t-136.5 -89 t-77.5 -104h326l20 104h129l-45 -231h-612z" />
<glyph horiz-adv-x="770" d="M379 530q-92 0 -168 34t-107 67l-30 35l100 100q8 -10 23.5 -25.5t68.5 -42t113 -26.5q78 0 136 53t58 129q0 55 -46 87t-109 32h-64l-20 74l239 235l54 41v6q-29 -6 -62 -6h-200l-21 -109h-129l45 232h569l-18 -98l-276 -267q76 -16 135 -72.5t59 -152.5 q0 -127 -101.5 -226.5t-248.5 -99.5z" />
<glyph horiz-adv-x="806" d="M459 551l43 223h-424l18 98l520 574h168l-106 -551h125l-23 -121h-127l-43 -223h-151zM260 895h266l58 299l26 92h-6q-27 -45 -59 -80l-285 -307v-4z" />
<glyph horiz-adv-x="765" d="M365 530q-82 0 -156 32t-107 65l-32 32l94 101l26 -26q16 -15 69.5 -40.5t105.5 -25.5q90 0 151.5 55t61.5 137q0 68 -44.5 108t-117.5 40q-88 0 -156 -43l-80 30l135 451h488l-45 -232h-127l20 109h-233l-51 -180l-17 -39l4 -2q45 20 113 20q121 0 194.5 -72.5 t73.5 -183.5q0 -133 -107 -234.5t-263 -101.5z" />
<glyph horiz-adv-x="794" d="M428 530q-133 0 -212 87.5t-79 238.5q0 123 57.5 260t177.5 243.5t267 106.5q53 0 102.5 -12t69.5 -24l23 -11l-66 -125q-55 29 -135 29q-92 0 -169 -72.5t-118 -183.5h4q74 63 174 63q111 0 179.5 -68.5t68.5 -176.5q0 -152 -102.5 -253.5t-241.5 -101.5zM434 672 q80 0 131 62.5t51 144.5q0 59 -35.5 95t-99.5 36q-74 0 -130 -47.5t-56 -112.5q0 -72 38 -125t101 -53z" />
<glyph horiz-adv-x="735" d="M104 551l512 727l41 45v4q-29 -4 -55 -4h-268l-21 -109h-127l43 232h625l-18 -105l-562 -790h-170z" />
<glyph horiz-adv-x="811" d="M410 530q-121 0 -209 63.5t-88 174.5q0 152 194 283q-72 59 -71 145q0 127 100 198.5t227 71.5q117 0 190.5 -58t73.5 -153q0 -137 -161 -270q98 -68 98 -168q0 -123 -107.5 -205t-246.5 -82zM559 1042q117 94 117 193q0 47 -38 72.5t-89 25.5q-61 0 -112.5 -34.5 t-51.5 -98.5q0 -20 8 -37.5t17.5 -29t31 -26.5t33.5 -22l43 -21q31 -16 41 -22zM416 664q72 0 132 44t60 107q0 25 -10 45.5t-33.5 39t-43 28.5l-57.5 28.5t-56 28.5q-139 -92 -140 -199q0 -55 44.5 -88.5t103.5 -33.5z" />
<glyph horiz-adv-x="796" d="M309 530q-53 0 -103 11.5t-73 23.5l-22 13l69 122q53 -27 133 -26q92 0 169 72.5t118 183.5h-4q-78 -63 -174 -64q-111 0 -179.5 69t-68.5 177q0 152 102.5 253t241.5 101q133 0 212 -87t79 -238q0 -123 -57.5 -260.5t-177.5 -244t-265 -106.5zM465 987q74 0 130 47 t56 113q0 72 -38 125t-101 53q-80 0 -132 -62.5t-52 -146.5q0 -57 35.5 -93t101.5 -36z" />
<glyph horiz-adv-x="827" d="M315 -20q-274 0 -274 299q0 96 21.5 199.5t66.5 204.5t129 166.5t193 65.5q274 0 274 -301q0 -96 -22.5 -199.5t-67.5 -204.5t-128 -165.5t-192 -64.5zM317 121q84 0 143.5 85t83 190.5t23.5 207.5q0 168 -121 168q-84 0 -143 -85t-82.5 -191.5t-23.5 -210.5 q-1 -164 120 -164z" />
<glyph horiz-adv-x="688" d="M-41 0l25 127h211l96 496l18 73h-4q-20 -29 -51 -51l-100 -82l-76 103l282 229h138l-150 -768h209l-25 -127h-573z" />
<glyph horiz-adv-x="776" d="M-37 0q2 100 44 181t103.5 129t133 94.5t132 79t101.5 79.5t41 103q0 47 -33.5 77.5t-87.5 30.5q-47 0 -95 -24.5t-73 -49.5l-26 -24l-90 100q14 16 38.5 39t102.5 61.5t154 38.5q119 0 194.5 -64.5t75.5 -170.5q0 -88 -49 -158.5t-122 -116t-147.5 -85t-136 -89 t-78.5 -104.5h326l21 104h129l-46 -231h-612z" />
<glyph horiz-adv-x="770" d="M272 -20q-92 0 -167.5 33.5t-106.5 68.5l-31 33l101 100q8 -10 23 -25.5t68.5 -42t112.5 -26.5q78 0 136.5 53t58.5 129q0 55 -46 87t-110 32h-63l-21 74l240 235l53 41v6q-29 -6 -61 -6h-201l-20 -108h-129l45 231h569l-18 -98l-277 -267q76 -16 135.5 -72.5 t59.5 -152.5q0 -127 -102 -226t-249 -99z" />
<glyph horiz-adv-x="806" d="M352 0l43 223h-424l19 99l520 573h168l-107 -551h125l-22 -121h-127l-43 -223h-152zM154 344h266l57 299l27 92h-6q-27 -45 -60 -80l-284 -307v-4z" />
<glyph horiz-adv-x="763" d="M256 -20q-82 0 -155.5 31.5t-106.5 64.5l-33 33l94 100l27 -26q16 -15 69.5 -40.5t104.5 -25.5q90 0 151.5 55t61.5 137q0 68 -44 108t-118 40q-88 0 -155 -43l-80 30l135 451h487l-45 -231h-127l21 108h-234l-51 -180l-16 -39l4 -2q45 20 112 20q121 0 195 -72.5 t74 -183.5q0 -133 -107.5 -234t-263.5 -101z" />
<glyph horiz-adv-x="794" d="M322 -20q-133 0 -212 87t-79 238q0 123 57 260t177 243.5t267 106.5q53 0 102.5 -11t70.5 -23l22 -13l-65 -125q-55 29 -136 29q-92 0 -168.5 -72.5t-117.5 -183.5h4q74 63 174 64q111 0 179.5 -69t68.5 -177q0 -152 -102.5 -253t-241.5 -101zM328 121q80 0 131 62.5 t51 144.5q0 59 -36 95t-99 36q-74 0 -130.5 -47t-56.5 -113q0 -72 38.5 -125t101.5 -53z" />
<glyph horiz-adv-x="731" d="M-4 0l512 727l41 45v4q-29 -4 -55 -4h-269l-20 -108h-127l43 231h624l-18 -104l-561 -791h-170z" />
<glyph horiz-adv-x="811" d="M303 -20q-121 0 -209 63t-88 174q0 152 195 283q-72 59 -72 145q0 127 100.5 198.5t227.5 71.5q117 0 190.5 -58t73.5 -152q0 -137 -162 -271q98 -68 98 -168q0 -123 -107.5 -204.5t-246.5 -81.5zM453 492q117 94 116 192q0 47 -37.5 72.5t-89.5 25.5q-61 0 -112 -34.5 t-51 -98.5q0 -20 8 -37.5t17 -29t30.5 -26.5t34.5 -21l43 -22q31 -15 41 -21zM309 113q72 0 132.5 44t60.5 107q0 25 -10.5 45.5t-34 39t-43 28.5l-57.5 28.5t-56 28.5q-139 -92 -139 -198q0 -55 44 -89t103 -34z" />
<glyph horiz-adv-x="794" d="M201 -20q-53 0 -103.5 12t-72.5 24l-23 11l70 123q53 -27 133 -27q92 0 169 72.5t118 183.5h-5q-78 -63 -174 -64q-111 0 -179 69t-68 177q0 152 102 253t242 101q133 0 211.5 -87t78.5 -238q0 -123 -57 -260t-177 -243.5t-265 -106.5zM356 436q74 0 130.5 47t56.5 113 q0 72 -38 125t-102 53q-80 0 -132 -62.5t-52 -146.5q0 -57 35.5 -93t101.5 -36z" />
</font>
</defs>
</svg>
