<?xml version="1.0" standalone="no"?>
<!DOCTYPE svg PUBLIC "-//W3C//DTD SVG 1.1//EN" "http://www.w3.org/Graphics/SVG/1.1/DTD/svg11.dtd" >
<svg xmlns="http://www.w3.org/2000/svg">
<metadata>
This is a custom SVG webfont generated by Font Squirrel.
Copyright   : Comfortaa  Johan Aakerlund 2008 All Rights Reserved
Designer    : Johan Aakerlund  aajohan
Foundry     : Johan Aakerlund
</metadata>
<defs>
<font id="webfontOXySAFbV" horiz-adv-x="1013" >
<font-face units-per-em="2048" ascent="1638" descent="-410" />
<missing-glyph horiz-adv-x="507" />
<glyph unicode=" "  horiz-adv-x="507" />
<glyph unicode="&#x09;" horiz-adv-x="507" />
<glyph unicode="&#xa0;" horiz-adv-x="507" />
<glyph unicode="!" horiz-adv-x="509" d="M111 102q20 104 94 105h8q102 -14 102 -92v-23q0 -72 -94 -92h-12q-78 0 -98 102zM141 416v960q16 66 72 66h12q61 0 74 -70v-954q-18 -72 -78 -72q-80 13 -80 70z" />
<glyph unicode="&#x22;" horiz-adv-x="555" d="M80 1479q15 80 80 80q76 -18 76 -68q-20 -311 -54 -311l-26 -9q-51 0 -58 123zM324 1491q0 51 84 68q51 0 71 -76q-29 -295 -45 -295q-20 -16 -31 -17h-4q-57 0 -57 136z" />
<glyph unicode="#" horiz-adv-x="1335" d="M170 555v4q0 51 76 70h153l39 190h-137q-74 16 -74 76q12 72 68 72v4l37 -4h137q82 438 96 438q29 23 58 22q61 0 71 -75l-76 -385h220q80 418 94 434q27 31 63 31q70 -18 70 -66v-10q0 -25 -78 -389h111l35 4q55 0 69 -76q-16 -76 -74 -76h-170l-36 -190h139 q86 -10 86 -76q-16 -72 -72 -72v-4l-18 4h-166q-83 -418 -98 -448q-25 -35 -62 -35h-6q-68 14 -68 68v4l82 411h-215q-10 0 -53 -245q-41 -201 -51 -207q-25 -35 -62 -35q-76 14 -75 76l84 411h-103l-22 -4q-58 0 -72 78zM551 629h219l37 190h-217z" />
<glyph unicode="$" d="M72 223q12 76 73 76q41 0 109 -86q80 -55 158 -61v579q-131 39 -183 113q-100 102 -100 239v27q0 188 195 305q70 33 88 33v139q23 66 65 66h21q47 0 63 -74v-129q92 -6 209 -111q43 -43 43 -65v-25q0 -49 -74 -61q-31 0 -96 74q-35 29 -82 43v-461q178 -66 252 -205 q59 -109 59 -209q0 -276 -286 -403l-25 -4v-127q-18 -74 -72 -74q-78 16 -77 74v104q0 6 -88 18q-174 59 -248 183zM276 1061q0 -125 136 -199v414q-135 -68 -136 -184v-31zM561 158h4q156 94 156 231v39q0 143 -160 242v-512z" />
<glyph unicode="%" horiz-adv-x="1609" d="M100 1075q0 236 250 344q55 16 103 17h18q168 0 285 -152q68 -100 67 -205q0 -233 -241 -344q-68 -18 -115 -18h-6q-213 0 -324 203q-37 75 -37 155zM244 63v17q0 33 106 160l893 1179q23 16 43 17h10q70 -16 70 -70v-14q0 -23 -141 -201l-860 -1137q-27 -14 -46 -14h-4 q-71 16 -71 63zM248 1071q0 -150 166 -205l39 -2h18q145 0 201 170l4 41q0 154 -164 209l-47 8q-151 0 -209 -159l-8 -54v-8zM788 348v23q0 190 191 307q90 45 170 45q211 0 334 -219q27 -78 26 -139v-13q0 -213 -223 -325q-66 -27 -137 -27h-6q-184 0 -303 178 q-52 90 -52 170zM934 365q0 -152 156 -209l53 -9h14q141 0 201 164l4 33v27q0 150 -174 200l-39 4q-158 0 -211 -178z" />
<glyph unicode="&#x26;" horiz-adv-x="1456" d="M129 391q0 195 213 367l45 51q-184 170 -184 258q-8 0 -8 68q0 184 200 282q59 16 94 17h21q193 0 285 -213q10 -41 10 -82v-21q0 -143 -156 -268l-37 -41l322 -324h4l156 156q25 18 49 18q70 0 80 -84q0 -41 -133 -157l-41 -45l215 -217q16 -20 16 -41v-13 q-16 -72 -74 -71h-10q-43 0 -141 112l-121 119q-217 -236 -285 -235q-61 -27 -133 -27q-221 0 -348 219q-39 94 -39 172zM289 379q0 -145 168 -211l55 -8q131 0 252 151l59 62l-321 321h-4q-205 -180 -205 -266l-4 -31v-18zM354 1118q0 -78 144 -196h4q147 129 147 196v17 q0 94 -112 139l-39 4q-92 0 -138 -98l-6 -31v-31z" />
<glyph unicode="'" horiz-adv-x="344" d="M92 1466q15 80 80 80q76 -18 76 -67q-23 -313 -51 -314l-29 -8q-49 0 -55 125z" />
<glyph unicode="(" horiz-adv-x="757" d="M328 594q0 498 221 977q29 25 53 24h12q68 -12 68 -67v-12l-76 -203q-131 -350 -131 -723q0 -461 207 -916l4 -16q-14 -76 -72 -76h-8q-63 0 -102 137q-176 412 -176 875z" />
<glyph unicode=")" horiz-adv-x="757" d="M68 -340l79 203q131 375 132 729q0 449 -207 915l-4 17q12 76 71 75h17q53 0 96 -137q174 -416 174 -866q0 -532 -227 -993q-27 -18 -52 -19h-8q-59 0 -71 76z" />
<glyph unicode="*" horiz-adv-x="1024" d="M229 1327v4q0 61 80 76q31 0 137 -80l48 -24v4l-52 168v8q0 57 80 76q76 -18 76 -76v-8l-51 -168v-4h4l160 100l22 4q78 -16 78 -76v-12q0 -40 -61 -68l-123 4h-72l152 -125l12 -30v-21q0 -59 -78 -71q-72 0 -86 110l-33 96h-4l-49 -163q-31 -43 -72 -43q-76 18 -75 67 v17q0 47 92 100l75 63h-4l-194 -4q-62 25 -62 76z" />
<glyph unicode="+" d="M135 741v4q0 53 80 72h225v227q16 72 72 72h12q59 0 72 -76v-223h213q90 -8 90 -80q-14 -76 -76 -75v-5l-18 5h-209v-230q-14 -76 -76 -76h-4q-76 14 -76 70v236h-204l-23 -5q-62 0 -78 84z" />
<glyph unicode="," horiz-adv-x="555" d="M106 145v5q0 82 105 124q14 8 43 9h16q135 -29 136 -138l4 -4l-4 -4v-4l8 -55v-17q0 -182 -185 -274q-37 -25 -59 -25q-43 0 -51 60q0 45 84 63q39 23 84 80l14 45l-47 -8q-148 24 -148 143z" />
<glyph unicode="-" horiz-adv-x="669" d="M68 575q23 72 75 72h402q57 0 76 -80q-18 -76 -76 -75h-402q-63 -1 -75 83z" />
<glyph unicode="." horiz-adv-x="555" d="M129 139q0 88 100 127q20 8 39 8q104 0 135 -124v-25q0 -76 -96 -119q-16 -6 -39 -6h-4q-112 0 -135 139z" />
<glyph unicode="/" horiz-adv-x="768" d="M4 -43q4 31 555 1524q35 37 70 37q76 -12 76 -72v-21q-500 -1376 -558 -1515q-33 -33 -59 -33h-8q-60 0 -76 80z" />
<glyph unicode="0" horiz-adv-x="987" d="M0 715v10q0 274 98 500q141 213 348 213q244 0 377 -267q74 -231 74 -407v-86q0 -229 -96 -465q-139 -213 -346 -213h-13q-227 0 -358 242q-84 215 -84 473zM135 696q0 -260 96 -440q92 -113 207 -113h13q256 0 299 394q10 55 14 186q0 223 -76 420q-94 150 -237 149 q-176 0 -258 -192q-57 -186 -58 -363v-41z" />
<glyph unicode="1" horiz-adv-x="567" d="M41 1296v21q0 55 152 86l112 35h12q68 -16 68 -66v-1300q-12 -72 -72 -72h-4q-72 16 -71 63v1199q-98 -33 -134 -33q-45 -1 -63 67z" />
<glyph unicode="2" horiz-adv-x="974" d="M0 1006q0 223 215 368q114 61 215 62q205 0 356 -183q78 -117 78 -247q0 -199 -192 -379l-418 -480h561q57 0 70 -71v-4q-12 -72 -74 -72h-731q-72 12 -72 72v4q0 37 72 102l586 668q49 71 49 160q0 190 -201 268q-29 10 -76 10h-12q-184 0 -264 -197q-10 -37 -15 -98 q-25 -51 -67 -51h-8q-72 13 -72 68z" />
<glyph unicode="3" horiz-adv-x="954" d="M0 432q0 55 80 70q55 0 67 -76q0 -160 170 -256q63 -23 119 -23q170 0 256 177q20 57 21 92v28q0 158 -178 248l-123 29q-39 29 -39 63v4q0 70 102 70q74 0 154 98q31 65 30 117q0 123 -120 189q-45 23 -99 22q-137 0 -198 -149q-12 -111 -27 -111q-27 -29 -53 -29 q-76 18 -76 64v18q0 197 197 314q76 39 161 41q168 0 291 -152q68 -92 68 -203v-14q0 -154 -135 -275q195 -139 194 -358q0 -223 -211 -371q-104 -59 -215 -59h-10q-250 0 -391 260q-35 98 -35 172z" />
<glyph unicode="4" horiz-adv-x="1101" d="M0 494v14q0 23 39 55q596 774 635 836q27 27 45 26h22q43 0 64 -63l-4 -39v-752h117l34 4q53 0 72 -75q0 -49 -66 -74l-55 2h-102v-365q0 -47 -72 -63h-4q-72 12 -72 72v356h-506l-92 -2q-55 25 -55 68zM229 571h424v553z" />
<glyph unicode="5" d="M0 442q25 70 78 70q84 0 84 -131q49 -145 151 -197q80 -31 133 -30q197 0 279 198q14 37 14 94q0 213 -227 285l-88 8h-262q-53 0 -72 64v559q0 43 68 68l39 -5h573q59 0 76 -77q0 -57 -78 -76h-524v-379h215q250 0 395 -258q43 -106 43 -189q0 -233 -219 -383 q-113 -63 -223 -63h-13q-260 0 -407 270q-35 109 -35 172z" />
<glyph unicode="6" horiz-adv-x="950" d="M0 430q0 147 106 287l406 700q31 18 57 19q49 0 68 -76q0 -31 -90 -172l-189 -330v-4l58 4h33q205 0 350 -207q63 -113 63 -221q0 -215 -194 -358q-113 -72 -232 -72h-18q-203 0 -355 205q-63 114 -63 225zM152 412q0 -158 176 -246q49 -14 102 -19q190 0 270 199l13 72 v14q0 199 -215 273l-72 8q-184 0 -268 -203l-6 -61v-37z" />
<glyph unicode="7" horiz-adv-x="962" d="M31 72v12q10 41 659 1180l6 18h-579q-76 14 -76 76q16 72 63 72h730q68 -15 67 -62v-18q0 -18 -39 -76l-708 -1256q-28 -18 -50 -18h-2q-71 13 -71 72z" />
<glyph unicode="8" horiz-adv-x="970" d="M0 432q0 223 213 375q-88 66 -115 180q-12 29 -12 78v18q0 188 182 306q96 51 178 51q168 0 291 -154q70 -94 70 -203v-18q0 -150 -137 -274q197 -141 196 -359q0 -215 -196 -360q-113 -72 -232 -72h-18q-205 0 -357 205q-63 114 -63 227zM147 434q0 -197 209 -274 q29 -12 82 -13q190 0 271 209l8 58v37q0 162 -187 249q-55 16 -96 17q-201 0 -274 -209zM236 1067q0 -141 170 -201l40 -4q150 0 205 160l8 53q0 154 -167 207l-50 4q-145 0 -200 -153z" />
<glyph unicode="9" horiz-adv-x="970" d="M0 1008q0 240 231 378q100 49 199 50q224 0 369 -215q59 -111 59 -213q0 -164 -131 -316l-502 -674q-28 -18 -49 -18q-76 16 -76 76q0 31 121 180l240 326h-4l-23 -4q-246 0 -385 231q-49 101 -49 199zM150 989q0 -147 165 -239q51 -23 115 -23q162 0 248 154 q31 57 31 123v4q0 193 -199 266q-23 10 -76 10h-22q-158 0 -246 -178q-16 -55 -16 -82v-35z" />
<glyph unicode=":" horiz-adv-x="555" d="M168 164q25 121 113 121h16q94 0 119 -113v-20q0 -88 -119 -115q-129 21 -129 127zM168 827q25 125 125 125q89 0 123 -104v-33q0 -74 -105 -110h-18q-125 18 -125 122z" />
<glyph unicode=";" horiz-adv-x="555" d="M127 -133q12 47 55 47l25 -4q100 51 100 104l-12 -4q-131 20 -131 123q0 90 98 125h29q129 0 129 -192v-5q0 -186 -225 -260h-21q-47 8 -47 49v17zM143 803q25 123 123 123q90 0 125 -105v-30q0 -76 -104 -113h-21q-123 19 -123 125z" />
<glyph unicode="&#x37e;" horiz-adv-x="555" d="M127 -133q12 47 55 47l25 -4q100 51 100 104l-12 -4q-131 20 -131 123q0 90 98 125h29q129 0 129 -192v-5q0 -186 -225 -260h-21q-47 8 -47 49v17zM143 803q25 123 123 123q90 0 125 -105v-30q0 -76 -104 -113h-21q-123 19 -123 125z" />
<glyph unicode="&#x3c;" d="M115 627q0 57 110 106q571 369 596 369h8q76 -18 76 -76v-8q0 -57 -131 -121q-6 -10 -428 -266q18 -16 537 -340q23 -25 22 -58v-4q0 -63 -80 -75q-31 0 -147 79l-537 332q-26 29 -26 62z" />
<glyph unicode="=" d="M135 428q0 55 80 74h604q80 -15 80 -80q-16 -78 -76 -78h-618q-58 0 -70 84zM135 762q23 72 78 72h610q57 0 76 -80q-18 -76 -76 -76h-610q-66 0 -78 84z" />
<glyph unicode="&#x3e;" d="M137 248v4q0 59 127 121l432 274q-514 315 -538 340q-20 27 -21 53q15 80 80 80q27 0 236 -137q440 -272 460 -291q16 -23 17 -45v-8q0 -53 -96 -94q-586 -373 -605 -373h-16q-76 15 -76 76z" />
<glyph unicode="?" horiz-adv-x="978" d="M57 1010q0 205 201 356q123 68 240 68q178 0 325 -160q102 -131 103 -281q0 -188 -170 -336q-176 -96 -176 -280q-12 -76 -74 -76q-74 16 -74 64v30q0 236 250 389q94 92 94 222q0 160 -170 256q-80 23 -121 22q-166 0 -260 -176l-26 -129q-31 -41 -66 -41q-76 15 -76 72 zM399 92q0 88 95 107h16q63 0 92 -84v-27q-18 -94 -104 -94q-99 21 -99 98z" />
<glyph unicode="@" horiz-adv-x="2017" d="M-4 623q0 406 328 712q279 236 612 236h37q416 0 723 -357q213 -272 213 -596q0 -406 -277 -516q-72 -31 -143 -30h-29q-139 0 -164 51l-4 20l4 101v4q-174 -168 -381 -168h-30q-281 0 -465 278q-68 135 -68 273q0 307 299 483q129 61 248 62q311 0 494 -306 q55 -123 55 -256v-383l29 -4q150 0 231 148q41 100 41 213v51q0 326 -272 580q-236 197 -521 196q-418 0 -675 -368q-125 -203 -125 -429v-4q0 -377 313 -630q225 -164 487 -164q224 0 449 135l18 4q80 -15 80 -80q0 -96 -336 -192q-95 -25 -184 -25h-51q-347 0 -639 264 q-297 302 -297 697zM508 623q0 -238 240 -361q74 -27 137 -26h30q199 0 328 198q49 94 49 180v17q0 229 -227 352q-80 37 -166 37h-2q-242 0 -365 -252q-25 -76 -24 -133v-12z" />
<glyph unicode="A" horiz-adv-x="1189" d="M0 72v4l127 346q342 891 365 969q33 37 63 36q68 0 102 -139q457 -1188 459 -1208v-12q0 -55 -72 -68h-4q-68 0 -94 127l-168 440h-440l-207 -544q-33 -23 -51 -23h-8q-72 13 -72 72zM397 715h324v4l-162 424h-4z" />
<glyph unicode="B" horiz-adv-x="997" d="M55 72v1286q12 72 72 72v2l18 -2h230l14 2q172 0 295 -162q61 -89 61 -197v-10q0 -127 -102 -246q246 -135 246 -391t-268 -395q-86 -31 -154 -31h-340q-72 13 -72 72zM203 147h194q217 0 291 123q49 68 49 156v6q0 205 -223 273l-104 8h-207v-566zM203 858h139 q184 0 238 133q14 35 14 76v10q0 145 -170 201l-80 4h-141v-424z" />
<glyph unicode="C" horiz-adv-x="1361" d="M63 719q0 373 340 606q182 111 373 111q224 0 418 -136q14 -27 14 -45v-8q0 -63 -80 -71h-4l-131 67q-125 41 -217 41q-268 0 -465 -246q-98 -166 -98 -319q0 -313 297 -500q133 -68 260 -67h10q172 0 336 104h25q68 -15 67 -68v-10q0 -82 -254 -155q-84 -23 -166 -23 h-18q-354 0 -594 330q-113 188 -113 389z" />
<glyph unicode="D" horiz-adv-x="1193" d="M55 72v1294q12 72 72 72v4l18 -4h195l41 4q322 0 561 -283q152 -199 152 -446q0 -344 -303 -580q-193 -133 -406 -133h-258q-72 13 -72 72zM203 147h164q358 0 534 351q45 117 45 227q0 260 -231 455q-143 113 -424 112h-88v-1145z" />
<glyph unicode="E" horiz-adv-x="1093" d="M63 72v1294q12 72 72 72v4l19 -4h743l16 4q63 0 76 -82q-16 -70 -84 -70h-694v-512h455l55 4q49 0 67 -75q0 -51 -61 -76l-76 4h-440v-488h713q53 0 65 -79q-23 -68 -67 -68h-787q-72 13 -72 72z" />
<glyph unicode="F" horiz-adv-x="1030" d="M55 72v1294q12 72 72 72v4l18 -4h746l14 4q63 0 76 -82q-16 -70 -84 -70h-694v-512h454l56 4q49 0 67 -75q0 -51 -61 -76l-76 4h-440v-541l4 -22q-18 -72 -72 -72h-8q-72 13 -72 72z" />
<glyph unicode="G" horiz-adv-x="1290" d="M43 719q0 358 319 596q199 121 383 121q229 0 412 -127q18 -25 19 -49v-5q0 -57 -76 -71q-14 0 -148 63q-86 33 -170 33h-59q-212 0 -406 -203q-125 -170 -124 -352v-14q0 -293 272 -480q141 -80 285 -79h14q141 0 280 75v344h-274q-70 12 -70 72v2q12 74 70 74h352 q57 0 70 -74v-418q0 -94 -45 -114q-193 -113 -377 -113h-20q-354 0 -594 330q-113 186 -113 389z" />
<glyph unicode="H" horiz-adv-x="1185" d="M45 76v1274q10 84 66 84h14q68 -15 68 -62v-598h712v588q12 72 68 72h10q70 -12 70 -68v-1303q0 -47 -72 -63h-4q-72 12 -72 72v561h-712v-565q0 -55 -70 -68h-4q-60 0 -74 76z" />
<glyph unicode="I" horiz-adv-x="538" d="M59 72v4q14 74 66 74h22v1146h-16q-61 0 -72 80v4q0 45 72 68l21 -2h141l14 2q78 -16 78 -76q-12 -76 -74 -76h-14v-1146h22q49 0 66 -74v-4q-12 -72 -74 -72h-180q-72 13 -72 72z" />
<glyph unicode="J" horiz-adv-x="1021" d="M45 449q16 72 66 71h16q72 0 72 -119q6 -80 98 -182q94 -72 197 -72q212 0 288 222q12 40 13 80v921q12 70 67 70h12q55 0 68 -74v-922q0 -240 -223 -383q-104 -61 -217 -61h-19q-217 0 -368 213q-70 117 -70 236z" />
<glyph unicode="K" horiz-adv-x="1110" d="M61 76v1284q16 74 72 74h4q72 -12 72 -68v-653q698 698 706 698l27 4h6q70 -12 70 -67v-13q0 -37 -80 -100l-465 -469l533 -660l4 -22v-12q0 -55 -72 -68h-4q-45 0 -125 117l-444 541l-156 -160v-434q0 -55 -72 -68h-4q-56 0 -72 76z" />
<glyph unicode="L" horiz-adv-x="995" d="M45 76v1274q10 84 66 84h14q68 -15 68 -62v-1225h618q59 0 72 -79q-23 -68 -72 -68h-692q-60 0 -74 76z" />
<glyph unicode="M" horiz-adv-x="1488" d="M59 76v1274q8 82 66 82h14q57 0 82 -99l481 -1073q18 20 336 750l187 399q23 23 49 23h14q55 0 64 -82v-1274q-14 -76 -72 -76h-4q-72 12 -72 68v942h-4q-432 -977 -436 -983q-31 -27 -57 -27q-65 0 -117 160l-379 846h-4v-938q0 -55 -72 -68h-4q-58 0 -72 76z" />
<glyph unicode="N" horiz-adv-x="1320" d="M39 80v1268q10 84 63 84h15q49 0 84 -76q90 -104 821 -1051q6 0 6 -10l4 -4h4v1073q12 68 68 68h10q57 0 70 -72v-1284q0 -63 -80 -76q-43 0 -131 131l-789 1006v-1065q0 -55 -71 -68h-2q-56 0 -72 76z" />
<glyph unicode="O" horiz-adv-x="1593" d="M39 721q0 344 301 577q199 137 416 138q365 0 608 -336q109 -186 109 -385q0 -362 -324 -598q-184 -117 -385 -117h-16q-371 0 -605 344q-104 170 -104 377zM184 711q0 -274 242 -461q152 -102 322 -103h20q268 0 453 238q104 150 104 334q0 309 -283 489 q-141 80 -286 80q-281 0 -469 -246q-103 -149 -103 -331z" />
<glyph unicode="P" horiz-adv-x="962" d="M45 76v1278q10 84 66 84h346q199 0 344 -209q53 -111 53 -193v-26q0 -190 -172 -328q-117 -80 -225 -80h-262v-534q0 -55 -72 -68h-4q-60 0 -74 76zM195 752h233q190 0 262 182q16 39 17 90q0 168 -172 248q-43 18 -99 18h-241v-538z" />
<glyph unicode="Q" horiz-adv-x="1597" d="M45 721q0 342 303 577q199 137 416 138q362 0 608 -336q109 -193 109 -385q0 -231 -156 -443v-4q160 -158 160 -188v-8q0 -57 -76 -72q-45 0 -143 121q-27 20 -41 45q-213 -166 -455 -166h-14q-371 0 -604 344q-107 174 -107 377zM193 711q0 -274 241 -461 q152 -102 322 -103h18q188 0 344 125q-150 160 -170 193v27q12 68 70 67h10q39 0 125 -106l72 -72h4q104 158 104 338q0 309 -282 489q-137 80 -287 80q-281 0 -469 -246q-102 -149 -102 -331z" />
<glyph unicode="R" horiz-adv-x="974" d="M43 76v1276q10 84 63 84h316q199 0 328 -213q41 -86 41 -170v-17q0 -199 -193 -323l-37 -21q344 -594 344 -606v-18q0 -55 -71 -68h-5q-55 0 -112 129l-311 530h-216v-591q0 -55 -71 -68h-4q-58 0 -72 76zM190 807h216q178 0 233 192l4 31v31q0 141 -158 215 q-43 14 -141 14h-154v-483z" />
<glyph unicode="S" horiz-adv-x="925" d="M35 217q12 74 71 74q40 0 105 -80q96 -66 172 -66h33q154 0 246 172q14 51 14 84v37q0 151 -172 246l-195 53q-219 127 -219 330v27q0 200 215 313q80 31 150 31q186 0 309 -168l4 -17v-22q0 -49 -74 -62q-29 0 -102 80q-63 43 -125 43h-25q-126 0 -190 -135 q-14 -29 -14 -63v-31q0 -147 174 -211q123 0 272 -119q141 -143 141 -313q0 -209 -180 -344q-109 -76 -244 -76q-217 0 -358 186z" />
<glyph unicode="T" horiz-adv-x="1224" d="M39 1364q16 72 63 72h932q70 -12 70 -68v-14q0 -55 -84 -66h-377v-1220q0 -55 -72 -68h-2q-57 0 -71 76v1212h-383q-76 15 -76 76z" />
<glyph unicode="U" horiz-adv-x="1167" d="M41 537v813q10 84 63 84h15q68 -15 67 -62v-805q0 -258 150 -348q94 -72 207 -72q223 0 334 228q23 74 22 147v840q12 72 68 72h12q68 -12 68 -68v-883q0 -223 -218 -393q-133 -90 -274 -90h-27q-233 0 -409 231q-78 120 -78 306z" />
<glyph unicode="V" horiz-adv-x="1245" d="M35 1362v6q0 61 80 74q61 0 100 -160l373 -985h4l416 1114q31 31 61 31h4q57 0 72 -76l-477 -1290q-18 -76 -76 -76h-4q-68 0 -103 147q-450 1186 -450 1215z" />
<glyph unicode="W" horiz-adv-x="1775" d="M39 1364q16 72 63 72h17q63 0 82 -113l280 -975h8q291 1026 312 1061q27 27 53 27h10q66 0 86 -136q35 -92 279 -956h4l305 1059q27 33 53 33h17q68 -14 67 -60v-18l-383 -1327q-31 -31 -59 -31h-4q-72 0 -92 139q-242 823 -277 961h-4l-305 -1065q-29 -35 -62 -35h-16 q-63 0 -84 143q-307 1041 -350 1221z" />
<glyph unicode="X" horiz-adv-x="1298" d="M29 72v12q0 23 164 223l321 418q-465 588 -481 618l-4 23q16 72 63 72h17q43 0 71 -58l426 -542l459 587q20 12 37 13h12q55 0 68 -72v-4q0 -31 -103 -152l-383 -493l478 -611l8 -30v-4q-12 -72 -72 -72h-4q-47 0 -82 72l-418 530l-459 -588q-20 -14 -43 -14h-4 q-71 13 -71 72z" />
<glyph unicode="Y" horiz-adv-x="1150" d="M43 1362q16 72 63 72h17q47 0 78 -72l346 -516h4q367 555 387 571q23 16 33 17h22q47 0 66 -72q0 -33 -129 -211l-307 -457v-610q-10 -84 -66 -84h-14q-51 0 -70 61v621q0 18 -158 252l-270 403z" />
<glyph unicode="Z" horiz-adv-x="1269" d="M35 80q0 29 180 254l741 956h-845q-76 14 -76 76q16 72 63 72h1020q57 0 70 -72v-4q0 -25 -84 -125l-842 -1090h852q74 -12 74 -71v-4q-12 -72 -74 -72h-1008q-59 0 -71 80z" />
<glyph unicode="[" horiz-adv-x="778" d="M248 -342v1831q6 88 71 88v4l39 -4h293l43 4q74 -27 74 -72v-12q0 -51 -66 -76l-67 4h-232v-1691h291q74 -16 74 -70v-10q0 -68 -86 -78h-354q-80 14 -80 82z" />
<glyph unicode="\" horiz-adv-x="690" d="M0 1468q12 80 76 80h4q77 0 117 -172q365 -977 508 -1388q-16 -80 -76 -80h-17q-61 0 -104 168q-459 1234 -508 1392z" />
<glyph unicode="]" horiz-adv-x="757" d="M27 -336q0 53 75 74l21 -4h266v1691h-219l-76 -4q-68 22 -67 80q0 55 67 80l60 -4h276l43 4q74 -23 74 -76v-1859q0 -53 -78 -70h-367q-66 0 -75 84v4z" />
<glyph unicode="^" horiz-adv-x="940" d="M43 934q0 29 82 147q205 328 227 340l33 13h14q55 0 113 -115q231 -348 231 -373v-24q0 -55 -84 -68q-51 0 -139 168l-129 188l-219 -340q-37 -16 -55 -16q-56 0 -74 80z" />
<glyph unicode="_" horiz-adv-x="956" d="M0 -98q20 70 76 69h885q74 -12 73 -69v-13q-14 -70 -69 -69h-889q-64 0 -76 82z" />
<glyph unicode="`" horiz-adv-x="751" d="M211 1331v12q0 51 72 68h12q41 0 108 -84q180 -168 181 -192l4 -21q-14 -76 -76 -76h-8q-43 0 -164 138q-129 110 -129 155z" />
<glyph unicode="a" horiz-adv-x="1198" d="M43 514q0 287 279 453q125 57 233 57q289 0 459 -285q51 -111 51 -239v-432q0 -55 -72 -68h-4q-47 0 -69 55v4l4 95v4q-168 -158 -357 -158h-28q-260 0 -435 260q-61 121 -61 254zM188 508q0 -223 224 -336q76 -27 127 -27h28q188 0 307 187q45 94 46 168v14 q0 215 -213 330q-72 33 -152 33h-4q-225 0 -340 -236q-23 -78 -23 -123v-10z" />
<glyph unicode="b" horiz-adv-x="1228" d="M74 545v821q0 51 67 66h11q68 -14 67 -66v-489q164 158 373 157q199 0 360 -149q156 -166 156 -367q0 -293 -277 -459q-117 -59 -229 -59h-31q-207 0 -389 197q-108 145 -108 348zM219 510q0 -229 244 -344q65 -18 117 -19h22q227 0 340 242q18 74 19 113v22 q0 230 -246 344q-82 20 -117 21h-14q-225 0 -340 -240q-25 -78 -25 -121v-18z" />
<glyph unicode="c" horiz-adv-x="1034" d="M35 512q0 254 221 422q141 92 291 92q199 0 360 -149q10 -18 11 -37v-4q-12 -72 -70 -72h-4q-27 0 -121 72q-80 41 -166 41h-20q-219 0 -330 -230q-27 -84 -27 -137q0 -225 230 -338q74 -27 145 -27q125 0 254 107l31 6h12q53 0 66 -72v-2q0 -78 -240 -170 q-74 -14 -121 -14h-29q-207 0 -385 195q-108 155 -108 317z" />
<glyph unicode="d" horiz-adv-x="1198" d="M35 518q0 252 221 422q139 94 297 94q197 0 369 -153v426l-4 59q23 66 63 66h16q68 -15 68 -62v-747l4 -127q0 -147 -121 -312q-172 -184 -385 -184h-31q-209 0 -389 197q-108 153 -108 321zM180 510q0 -229 244 -344q65 -18 117 -19h22q227 0 340 242q18 74 19 113v22 q0 230 -246 344q-82 20 -117 21h-14q-225 0 -340 -240q-25 -78 -25 -121v-18z" />
<glyph unicode="e" horiz-adv-x="1165" d="M35 512q0 285 264 449q127 63 244 63q297 0 461 -281q55 -111 55 -237v-21q-12 -74 -72 -73h-788q43 -150 190 -230q84 -33 162 -32q84 0 199 57h20q68 -12 68 -70v-10q0 -94 -269 -127h-26q-276 0 -443 258q-65 119 -65 254zM186 557h719q0 74 -90 199 q-123 117 -242 116h-41q-180 0 -296 -176q-40 -69 -50 -139z" />
<glyph unicode="f" horiz-adv-x="864" d="M29 940q0 37 61 68l76 -2h121v67q0 254 223 348l88 17h90q53 0 66 -80q0 -51 -76 -70h-57q-139 0 -183 -151l-4 -78v-53h164l59 2q47 0 66 -72v-10q0 -47 -70 -66h-219v-749l4 -43q0 -49 -76 -68q-51 0 -75 63l4 48v749h-199q-51 0 -63 80z" />
<glyph unicode="g" horiz-adv-x="1206" d="M39 512q0 246 219 416q145 94 291 94q227 0 393 -191q115 -158 115 -296l-4 -127v-449q0 -125 -193 -274q-152 -98 -311 -99q-281 0 -463 250q-33 53 -33 74v10q0 51 68 66h10q51 0 86 -95q135 -168 332 -167q236 0 356 217l6 47v168q-170 -154 -352 -154h-31 q-203 0 -381 195q-108 155 -108 315zM184 506q0 -227 238 -338q72 -20 115 -21h22q221 0 336 238q16 63 16 113v22q0 227 -239 338q-74 18 -117 19h-14q-219 0 -334 -236q-23 -68 -23 -119v-16z" />
<glyph unicode="h" horiz-adv-x="1124" d="M74 68v1292q14 70 63 70h15q68 -16 67 -60v-461q143 125 311 125q252 0 404 -237q55 -102 55 -201v-528q0 -55 -71 -68h-3q-53 0 -71 68v505q0 207 -211 295q-49 14 -103 15q-209 0 -294 -224q-16 -53 -17 -157v-434q0 -55 -72 -68h-2q-53 0 -71 68z" />
<glyph unicode="i" horiz-adv-x="430" d="M102 76v868q9 86 74 86q74 -18 74 -63v-899q0 -55 -74 -68h-4q-54 0 -70 76zM102 1210q16 76 74 76q74 -18 74 -63v-23q0 -51 -80 -63q-50 -1 -68 73z" />
<glyph unicode="j" horiz-adv-x="655" d="M0 -328q0 55 82 68q209 0 276 211l9 110v895q0 57 73 70q70 -14 70 -70v-927q0 -276 -262 -404q-90 -33 -160 -33l-2 5h-4l-4 -5h-4q-62 0 -74 80zM367 1192v22q0 45 69 64q74 -16 74 -76q0 -61 -78 -74q-65 19 -65 64z" />
<glyph unicode="k" horiz-adv-x="1054" d="M78 68v1296q16 72 63 72h15q70 -16 69 -62v-745q500 330 625 403h18q59 0 72 -78q0 -45 -121 -110q-291 -197 -307 -201v-4l424 -537l4 -22v-4q-12 -72 -72 -72h-8q-45 0 -133 127l-340 424h-2l-160 -100v-387q0 -55 -71 -68h-4q-54 0 -72 68z" />
<glyph unicode="l" horiz-adv-x="471" d="M66 76v1270q8 82 63 81h14q70 -16 70 -61v-1219h78q47 0 63 -71v-4q-12 -72 -71 -72h-146q-55 0 -71 76z" />
<glyph unicode="m" horiz-adv-x="1673" d="M63 74v848q10 84 74 84q70 -18 70 -62v-37q123 98 264 99q190 0 336 -177q61 111 242 166l84 11q229 0 362 -220q45 -96 45 -176v-549q0 -47 -70 -61h-4q-70 12 -69 70v532q0 182 -191 250l-51 6h-37q-152 0 -231 -176q-12 -39 -13 -66v-542q-12 -74 -67 -74h-4 q-72 12 -72 66v452q0 193 -49 236q-78 104 -207 104h-10q-178 0 -248 -186q-10 -39 -10 -117v-489q0 -53 -70 -66h-4q-56 0 -70 74z" />
<glyph unicode="n" horiz-adv-x="1196" d="M78 76v862q8 86 76 86q70 -18 69 -66v-81q162 147 355 147q211 0 374 -176q119 -145 119 -309v-476q0 -47 -72 -63h-4q-70 12 -69 72v417q0 279 -244 369q-61 16 -104 16h-11q-201 0 -313 -210q-31 -72 -31 -205v-391q0 -55 -69 -68h-4q-56 0 -72 76z" />
<glyph unicode="o" horiz-adv-x="1169" d="M39 510q0 248 217 416q141 92 291 92q199 0 356 -150q154 -164 154 -358q0 -287 -273 -451q-119 -59 -227 -59h-29q-205 0 -383 193q-106 151 -106 317zM186 502q0 -203 199 -316q70 -37 152 -36h20q213 0 324 219q27 74 26 133v18q0 170 -155 287q-88 61 -209 61 q-230 0 -338 -239q-18 -59 -19 -109v-18z" />
<glyph unicode="p" horiz-adv-x="1171" d="M59 -342v821q0 383 363 518q39 12 143 23q197 0 357 -148q152 -162 151 -360q0 -283 -270 -446q-119 -59 -225 -60h-31q-174 0 -344 152v-510q0 -49 -74 -64q-52 0 -70 74zM207 506q0 -205 196 -316q72 -37 152 -36h23q211 0 321 219q27 74 27 133v18q0 166 -156 285 q-90 63 -209 63q-227 0 -336 -241q-18 -57 -18 -107v-18z" />
<glyph unicode="q" horiz-adv-x="1177" d="M45 506q0 246 217 412q141 92 289 92q193 0 352 -148q152 -147 152 -391v-817q-18 -74 -70 -74q-74 14 -74 64v508q-164 -152 -350 -152h-29q-205 0 -380 193q-107 149 -107 313zM193 498q0 -205 194 -314q72 -37 152 -37h22q211 0 322 218q25 68 24 133v18 q0 168 -153 285q-88 61 -207 61q-227 0 -336 -239q-18 -57 -18 -107v-18z" />
<glyph unicode="r" horiz-adv-x="923" d="M98 76v868q8 86 76 86q72 -18 72 -63v-82q164 145 352 145q101 0 215 -49q31 -31 31 -59v-4q-12 -70 -72 -70h-4q-100 33 -154 33h-22q-219 0 -324 -230q-23 -63 -22 -139v-444q0 -55 -72 -68h-4q-56 0 -72 76z" />
<glyph unicode="s" horiz-adv-x="966" d="M20 688q0 141 203 270q113 59 221 60q258 0 406 -234l2 -28v-4q0 -57 -74 -70q-49 0 -100 84q-102 100 -234 100q-172 0 -270 -164l-2 -18q0 -49 111 -59q449 -111 467 -117q106 -70 106 -178v-4q0 -156 -225 -283q-98 -43 -207 -43q-225 0 -381 211q-16 23 -16 41v22 q0 55 82 64q35 0 100 -94q98 -92 229 -92q154 0 258 147l9 23v4q0 49 -66 55q-496 111 -526 137q-93 72 -93 170z" />
<glyph unicode="t" horiz-adv-x="702" d="M12 932q12 70 68 69v5l37 -5h90v308q10 82 63 82h15q66 -16 65 -60v-330h152l33 5q49 0 67 -74q0 -51 -61 -74l-56 4h-135v-538q0 -143 92 -174l84 -7h41q47 0 62 -69v-4q-12 -70 -70 -70h-78q-174 0 -260 190q-14 43 -14 111v561h-74l-57 -4q-64 23 -64 74z" />
<glyph unicode="u" horiz-adv-x="1187" d="M70 532v408q8 86 75 86q70 -18 70 -63v-402q0 -254 147 -344q94 -72 207 -72q217 0 328 226q25 84 25 145v436q16 74 73 74q72 -16 72 -70v-893q0 -47 -72 -63h-4q-70 12 -69 72v69h-4q-157 -141 -338 -141h-25q-233 0 -405 229q-80 123 -80 303z" />
<glyph unicode="v" horiz-adv-x="1130" d="M29 942v19q12 68 67 67h8q59 0 103 -123l321 -661q350 741 371 766q25 18 49 18q76 -16 76 -70v-4q0 -20 -166 -360l-276 -571q-33 -23 -54 -23h-4q-63 0 -112 143q-363 744 -383 799z" />
<glyph unicode="w" horiz-adv-x="1415" d="M35 936q15 74 74 74q66 0 94 -150l182 -555h2q205 659 221 678q27 25 56 27q66 0 88 -123l188 -582h2q205 643 217 672q31 33 60 33q74 -15 73 -74l-291 -907q-33 -29 -59 -29h-2q-70 0 -96 143q-176 528 -176 553h-9l-213 -663q-25 -33 -59 -33h-2q-53 0 -76 66z" />
<glyph unicode="x" horiz-adv-x="966" d="M39 78q0 33 139 186l187 240l-320 399l-6 31q14 72 72 72q47 0 114 -107q187 -224 228 -283h4q23 23 301 371q12 12 47 19q70 -18 69 -62v-22q0 -25 -131 -177l-194 -245q326 -393 325 -412v-22q0 -53 -69 -66h-2q-43 0 -96 84l-250 305q-299 -371 -310 -379 q-16 -10 -36 -10h-2q-58 0 -70 78z" />
<glyph unicode="y" horiz-adv-x="911" d="M4 936v2q16 70 70 70q57 0 100 -138q231 -545 236 -567h2q272 666 290 688q23 20 50 21q68 -12 67 -66v-4q-4 -27 -344 -840q-160 -403 -180 -426q-16 -14 -45 -20q-72 16 -72 59v17q0 10 158 391v4z" />
<glyph unicode="z" horiz-adv-x="1017" d="M39 78q0 29 149 203l467 587h-495l-60 -4q-61 20 -61 74q12 70 65 70v4l37 -4h639l33 4q68 -23 68 -64v-20q0 -25 -86 -117l-533 -668h551q68 -12 68 -65v-12q0 -53 -70 -66h-702q-58 0 -70 78z" />
<glyph unicode="{" d="M264 670q14 72 66 71h59q84 0 84 54v573q0 166 168 217l41 4h141q66 0 84 -59v-25q0 -47 -67 -63h-146q-72 0 -71 -76v-580q0 -45 -48 -120q49 -55 50 -129v-586q0 -61 73 -62h142q68 -16 67 -67v-17q0 -47 -71 -63h-150q-150 0 -205 166l-4 49v575q0 49 -53 62h-84 q-76 15 -76 76z" />
<glyph unicode="|" d="M430 -342v1884q12 78 74 78h8q70 -12 70 -70v-1908q0 -47 -78 -66q-58 0 -74 82z" />
<glyph unicode="}" d="M106 -168q12 72 66 72h139q72 0 72 59v563q0 84 49 146q-45 63 -45 121v579q0 59 -72 60h-143q-53 0 -66 71q12 76 70 76h156q137 0 196 -158l4 -35v-579q0 -63 86 -64h62q59 -18 59 -67v-14q0 -47 -71 -64h-78q-61 0 -62 -94v-555q0 -125 -155 -187l-45 -4h-152 q-70 12 -70 72v2z" />
<glyph unicode="~" d="M186 727v14q0 72 107 97q35 14 80 14h24q88 0 211 -82l39 -10h25l96 28q94 -18 94 -96q0 -98 -180 -119h-35q-92 0 -211 82l-39 9h-24l-90 -25h-11q-86 18 -86 88z" />
<glyph unicode="&#xa1;" horiz-adv-x="671" d="M215 1237q20 90 84 90h14q63 0 88 -63l7 -27q0 -86 -101 -98q-77 0 -92 98zM244 68v933q0 51 65 64h4q68 -12 68 -66v-929q-10 -66 -68 -66h-6q-63 13 -63 64z" />
<glyph unicode="&#xa2;" horiz-adv-x="1103" d="M47 502q0 270 260 438q133 63 246 64l41 -5q117 356 131 367q23 20 47 20h10q68 -12 68 -65v-10l-119 -344q180 -84 180 -148v-2q-12 -70 -69 -69h-4q-29 0 -117 69l-37 14l-233 -673q41 -14 104 -15q125 0 250 103l29 8h12q53 0 65 -70v-4q0 -74 -233 -164 q-86 -16 -119 -16h-29q-45 0 -131 23q-92 -285 -112 -299l-49 -19q-72 18 -72 74q0 25 104 307q-223 166 -223 416zM190 500q0 -160 129 -273h3l221 629h-4q-215 0 -324 -221q-25 -77 -25 -135z" />
<glyph unicode="&#xa3;" horiz-adv-x="944" d="M80 696q16 78 76 78h90v4q-113 207 -113 316q0 229 244 356q80 23 110 23h39q182 0 310 -170l4 -27q-18 -78 -76 -78q-39 0 -102 74q-68 51 -136 51h-22q-150 0 -215 -182l-4 -49q0 -76 139 -318h231q76 -14 76 -78q-18 -74 -65 -73h-205l4 -27v-49q0 -123 -109 -340 l-18 -47h389q8 0 43 82q31 31 61 30q78 -16 78 -77q0 -27 -73 -162q-31 -25 -54 -25h-569q-55 0 -72 78q0 20 150 344q25 68 24 127l-4 66h-159q-72 14 -72 73z" />
<glyph unicode="&#xa4;" d="M190 451v12q0 45 80 108q-37 72 -37 127v21q0 68 37 139q-80 65 -80 105v20q20 63 64 64h20q37 0 109 -80q63 37 123 37h24q72 0 136 -37q68 80 100 80h29q63 -20 63 -72v-8q0 -39 -80 -113q35 -63 35 -139q0 -66 -35 -148q80 -65 80 -104v-17q-22 -68 -67 -67h-21 q-28 0 -104 80h-4q-61 -35 -144 -35q-57 0 -139 35q-63 -80 -109 -80h-8q-72 17 -72 72zM383 715q0 -100 115 -140h28q108 0 136 123v29q-29 125 -123 125l-13 2q-143 -24 -143 -139z" />
<glyph unicode="&#xa5;" horiz-adv-x="1261" d="M70 544.5q0 57.5 77 73.5h291q-104 162 -110 162h-193q-66 18 -65 72q0 61 86 72h80q-104 166 -113 166q-53 23 -53 73q0 49 73 68h170q61 0 74 -78q0 -47 -70 -68q244 -375 293 -442h8q303 442 304 451h-4q-41 25 -41 55v18q18 63 73 64h144q61 0 73 -78q0 -33 -57 -70 l-109 -159h74q84 -8 84 -70v-6q0 -55 -69 -68h-189l-106 -162h288q76 -14 76 -69v-4q0 -61 -74 -70v-4l-34 4h-355v-409q0 -47 -73 -66h-5q-61 0 -83 59l4 64v346l-9 6h-350l-33 -4q-77 16 -77 73.5z" />
<glyph unicode="&#xa6;" horiz-adv-x="768" d="M287 307q8 88 75 88q74 -18 74 -63v-694q0 -45 -78 -64q-55 0 -71 80v653zM287 872v666q12 78 71 78h9q70 -12 69 -70v-682q0 -55 -74 -67h-4q-57 -1 -71 75z" />
<glyph unicode="&#xa7;" d="M162 1067v16q0 203 198 318q76 39 152 39h35q164 0 291 -152l4 -22q-8 -63 -56 -64h-18q-18 0 -94 72q-68 43 -144 43q-178 0 -239 -203v-47q0 -154 174 -227q186 -27 237 -82q123 -111 123 -234v-51q0 -115 -135 -231q164 -123 164 -303q0 -207 -195 -324 q-82 -41 -167 -41h-13q-182 0 -305 154l-4 24q0 53 70 62q25 0 86 -62q76 -55 153 -55q163 0 234 172l12 65q0 184 -203 248q-119 14 -170 47q-168 115 -168 269v18q0 157 142 252q-164 129 -164 299zM313 506q0 -132 148 -184l39 -5h22q123 0 176 150l4 39q0 141 -163 188 l-39 4q-131 0 -183 -143l-4 -35v-14z" />
<glyph unicode="&#xa8;" horiz-adv-x="1024" d="M213 1229q18 80 80 80q80 -18 80 -80q-15 -80 -80 -80q-80 15 -80 80zM664 1229q18 80 79 80q80 -18 80 -80q-15 -80 -80 -80q-79 15 -79 80z" />
<glyph unicode="&#xa9;" horiz-adv-x="1673" d="M111 719q0 350 309 590q199 133 414 133q358 0 598 -326q121 -186 120 -397q0 -389 -358 -623q-168 -96 -369 -96q-326 0 -561 279q-153 204 -153 440zM219 711q0 -326 309 -529q154 -78 306 -78q313 0 516 283q98 158 98 336q0 317 -295 522q-157 86 -301 86h-39 q-281 0 -481 -256q-113 -162 -113 -346v-18zM322 719q0 268 247 436q127 76 275 76q193 0 350 -144q14 -20 14 -40v-9q0 -66 -78 -71h-4q-14 0 -125 80q-96 37 -163 36q-227 0 -344 -233q-23 -68 -23 -125v-27q0 -182 184 -305q94 -49 183 -49q133 0 266 111l31 8 q74 -8 73 -72v-8q0 -74 -217 -162q-100 -23 -153 -22q-297 0 -463 288q-53 119 -53 232z" />
<glyph unicode="&#xaa;" horiz-adv-x="647" d="M53 1145q0 178 197 248l39 4h33q152 0 227 -168l16 -76l-4 -63v-142l4 -22q-6 -27 -28 -37h-13q-20 0 -35 24v48q-88 -72 -172 -72h-8q-182 0 -248 196q-8 19 -8 60zM129 1137q0 -129 156 -172h32q117 0 168 141l4 39q0 117 -133 172l-47 8q-121 0 -176 -135z" />
<glyph unicode="&#xab;" horiz-adv-x="942" d="M242 496q0 20 120 159q123 154 140 154l4 2h4q45 -16 45 -31v-20q0 -20 -184 -236l-25 -32q211 -242 211 -269q-8 -43 -39 -43h-20q-34 25 -252 295zM489 487v21q207 262 252 297l25 4q37 -18 37 -45v-4q0 -18 -205 -260l-4 -13q197 -227 209 -251v-21q-8 -39 -41 -39h-4 q-31 0 -105 105q-164 186 -164 206z" />
<glyph unicode="&#xac;" d="M80 676q18 76 67 76h711q74 -16 74 -72v-348q0 -51 -78 -68h-2q-78 16 -78 76v256h-614q-80 15 -80 80z" />
<glyph unicode="&#xad;" horiz-adv-x="669" d="M68 575q23 72 75 72h402q57 0 76 -80q-18 -76 -76 -75h-402q-63 -1 -75 83z" />
<glyph unicode="&#xae;" horiz-adv-x="1673" d="M100 721q0 354 312 594q195 131 415 131q365 0 605 -326q121 -186 120 -399q0 -387 -358 -623q-172 -98 -373 -98q-330 0 -565 279q-156 206 -156 442zM211 715q0 -328 309 -531q154 -78 307 -78q317 0 521 283q100 164 100 336q0 317 -297 524q-160 88 -303 88h-39 q-283 0 -485 -258q-113 -162 -113 -348v-16zM567 287v876q10 53 49 54h187q205 0 268 -209q8 -18 8 -64q0 -147 -155 -233q223 -385 233 -416v-8q-14 -45 -45 -45h-14q-34 0 -80 98l-201 346h-147v-395q-6 -49 -43 -49h-27q-33 18 -33 45zM670 784h94q160 0 197 99 q16 37 16 71q0 104 -123 152q-16 8 -47 8h-137v-330z" />
<glyph unicode="&#xaf;" horiz-adv-x="804" d="M-82 1706q18 70 70 70h843q70 -12 70 -70v-12q-12 -70 -65 -70h-848q-62 0 -70 82z" />
<glyph unicode="&#xb0;" horiz-adv-x="673" d="M59 1163q0 119 82 199q84 80 199 80t195 -82q82 -86 81 -197q0 -113 -81.5 -194.5t-196.5 -81.5q-119 0 -199 79.5t-80 196.5zM160 1161q0 -74 53 -127q51 -51 127 -51t127 51t51 127t-51 127q-53 53 -127 53t-127 -53t-53 -127z" />
<glyph unicode="&#xb1;" d="M145 285v8q0 51 68 76l47 -4h537l37 4q72 -23 71 -76v-8q0 -51 -63 -76l-70 4h-496l-63 -4q-68 21 -68 76zM145 805v6q0 61 80 78h224v190l-5 37q23 72 68 72h25q43 0 67 -68l-4 -41v-190h225q80 -12 80 -78v-6q0 -55 -71 -78l-29 4h-205v-186l4 -45q0 -53 -80 -72 q-55 0 -80 68l5 49v186h-203l-25 -4q-76 19 -76 78z" />
<glyph unicode="&#xb2;" d="M303 1335q0 104 103 172q57 29 100 29q95 0 166 -86q37 -55 37 -115q0 -94 -91 -178l-196 -223h264q27 0 33 -35v-2q-6 -33 -35 -33h-342q-35 6 -35 33v2q0 16 35 47l272 314q25 39 25 75q0 90 -94 125q-10 4 -35 4h-6q-86 0 -123 -90q-4 -14 -8 -47q-12 -25 -31 -24h-4 q-35 5 -35 32z" />
<glyph unicode="&#xb3;" d="M291 1067q0 23 39 33q25 0 30 -35q0 -76 82 -123q25 -10 58 -10q80 0 121 84q10 27 10 43v14q0 76 -84 119l-60 12q-18 15 -18 31v2q0 33 47 33q35 0 76 47q12 25 12 55q0 61 -55 90q-18 10 -47 11q-68 0 -96 -72q-6 -51 -13 -51q-12 -14 -24 -15q-37 9 -37 31v8 q0 94 94 150q29 14 78 18q78 0 137 -72q33 -45 33 -96v-8q0 -70 -66 -129q94 -70 94 -170q0 -106 -100 -176q-57 -31 -102 -31h-6q-117 0 -187 125q-16 49 -16 82z" />
<glyph unicode="&#xb4;" horiz-adv-x="888" d="M219 1110v16q0 34 141 160q113 127 156 127q68 0 80 -88q0 -40 -184 -203q-68 -84 -109 -84h-10q-74 17 -74 72z" />
<glyph unicode="&#xb5;" horiz-adv-x="1179" d="M119 -350v1284q8 86 76 86q70 -18 69 -64v-399q0 -260 146 -344q90 -70 204 -70q217 0 328 224q25 80 25 145v432q16 76 73 76q70 -14 70 -72v-887q0 -49 -70 -63h-4q-70 12 -69 70v71h-4q-156 -141 -336 -141h-27q-178 0 -336 145v-508q0 -49 -74 -63q-55 0 -71 78z" />
<glyph unicode="&#xb6;" horiz-adv-x="1024" d="M70 1094q0 203 204 311q61 31 129 31h461q70 -16 70 -62v-18q0 -57 -74 -70h-10v-1210q-14 -76 -72 -76h-4q-72 12 -72 68v1218h-141v-1214q-12 -72 -72 -72h-4q-72 12 -71 72v673h-11q-186 0 -299 197q-34 76 -34 152z" />
<glyph unicode="&#xb7;" horiz-adv-x="507" d="M156 631q0 74 86 108q12 6 32 6q92 0 117 -106v-21q0 -66 -82 -102q-8 -4 -35 -4h-2q-96 0 -116 119z" />
<glyph unicode="&#x2219;" horiz-adv-x="507" d="M156 631q0 74 86 108q12 6 32 6q92 0 117 -106v-21q0 -66 -82 -102q-8 -4 -35 -4h-2q-96 0 -116 119z" />
<glyph unicode="&#xb8;" horiz-adv-x="1024" d="M332 -362q12 63 63 63h121q66 0 66 51v2q0 41 -62 53q-43 20 -43 54v110q0 53 72 66q66 -12 65 -60v-55q104 -68 105 -170q0 -145 -170 -188l-49 4h-54l-55 -4q-59 23 -59 59v15z" />
<glyph unicode="&#xb9;" d="M410 1497v10q0 25 71 41l54 17h6q31 -6 30 -31v-612q-6 -33 -32 -33h-2q-33 6 -33 29v565q-53 -16 -64 -17q-21 0 -30 31z" />
<glyph unicode="&#xba;" horiz-adv-x="716" d="M176 1231v4q0 117 43 215q61 92 152 92q104 0 164 -115q31 -96 30 -176v-39q0 -96 -41 -200q-57 -92 -149 -92h-6q-98 0 -156 104q-37 92 -37 207zM236 1223q0 -115 40 -193q39 -49 91 -49h6q111 0 129 172q2 8 6 80q0 98 -33 182q-41 66 -102 66q-78 0 -113 -84 q-25 -82 -24 -158v-16z" />
<glyph unicode="&#xbb;" horiz-adv-x="942" d="M207 211q0 23 108 147l105 129q-197 230 -209 252v21q0 29 45 39q29 0 123 -127q143 -158 143 -189q0 -25 -203 -260q-41 -55 -63 -55h-4q-45 10 -45 43zM455 199v20q0 23 204 256l5 17q-209 240 -209 264q8 47 45 47q29 0 106 -109q162 -184 162 -202v-21 q-193 -246 -256 -301h-29q-18 11 -28 29z" />
<glyph unicode="&#xbc;" horiz-adv-x="1468" d="M121 66v22q0 25 143 201q831 1083 879 1138q20 14 43 15h10q57 0 70 -72v-4q0 -35 -125 -178q-66 -92 -903 -1174q-23 -14 -50 -14q-67 19 -67 66zM162 1354q0 47 110 65q0 6 45 15q25 0 45 -33l-2 -58v-655l2 -35q-12 -41 -45 -41q-27 0 -41 31v684l-65 -14h-18 q-31 14 -31 41zM733 285v18q305 391 383 504q16 23 39 22q29 0 45 -38l-4 -37v-418h88q35 0 41 -51q-14 -37 -45 -37h-84v-217q-18 -31 -41 -31q-45 8 -45 45v203h-340q-37 10 -37 37zM868 336h242v311h-4z" />
<glyph unicode="&#xbd;" horiz-adv-x="1490" d="M111 63v23q0 27 143 203q791 1030 876 1132q23 16 41 17h13q55 0 67 -72v-4q0 -35 -125 -178q-88 -123 -899 -1170q-23 -14 -49 -14q-67 18 -67 63zM152 1350q0 45 110 63q0 8 45 17q23 0 45 -35l-4 -58v-651l4 -35q-14 -41 -45 -41q-25 0 -43 31v682l-63 -14h-19 q-30 14 -30 41zM834 569q0 162 176 236l67 10q174 0 244 -186l2 -37v-41q0 -96 -156 -248l-186 -217h297l14 4q43 -16 43 -29v-18q-10 -39 -39 -39h-415q-35 0 -43 45q0 14 182 213q213 236 213 264l4 29v33q-31 139 -156 139q-106 0 -155 -121q0 -63 -35 -76h-14 q-27 0 -43 39z" />
<glyph unicode="&#xbe;" horiz-adv-x="1540" d="M111 868q0 20 28 37h21q39 0 45 -82q43 -117 145 -116h12q113 0 152 131l4 30q0 111 -129 156q-68 0 -67 47q10 41 61 41q76 0 100 107v26q0 74 -98 107h-23q-86 0 -116 -99v-34q-14 -29 -37 -29h-12q-37 6 -37 37v8q0 141 162 199l45 4q125 0 188 -129q14 -31 14 -64 v-22q0 -84 -73 -156q109 -78 108 -203q0 -176 -196 -241l-54 -5h-6q-166 0 -233 197zM213 63v23q0 27 141 201q817 1063 873 1128q20 14 41 15h12q55 0 68 -72v-2q0 -35 -125 -178q-129 -180 -893 -1164q-23 -14 -49 -14q-68 18 -68 63zM819 283v18q317 410 381 500 q16 23 37 22q29 0 45 -39l-2 -36v-416h86q37 0 43 -49q-16 -37 -45 -37h-84v-215q-18 -31 -43 -31q-43 8 -43 45v201h-338q-37 8 -37 37zM954 332h240v309h-4z" />
<glyph unicode="&#xbf;" horiz-adv-x="976" d="M27 82q0 246 243 391q102 92 103 260q29 41 67 41q76 -12 76 -72v-6q0 -255 -246 -399q-98 -92 -98 -223q0 -166 174 -256q68 -23 113 -23q166 0 254 162q20 31 32 143q33 41 68 41q76 -18 76 -71q0 -211 -207 -359q-113 -63 -223 -63q-213 0 -355 184q-77 109 -77 250z M342 975v4q18 100 98 100h13q80 0 98 -104q-18 -98 -102 -98h-5q-84 0 -102 98z" />
<glyph unicode="&#xc0;" horiz-adv-x="1218" d="M0 72v4l129 348q342 889 367 977q33 37 63 37q70 0 103 -140q461 -1196 462 -1218v-12q0 -55 -71 -68h-4q-66 0 -95 129l-172 442h-440l-211 -548q-33 -23 -51 -23h-8q-72 13 -72 72zM401 719h326v4l-164 428h-4zM406 1718q18 68 71 68h6q47 0 133 -125q61 -63 62 -94 q-12 -76 -72 -76h-16q-35 0 -139 143q-45 37 -45 84z" />
<glyph unicode="&#xc1;" horiz-adv-x="1210" d="M0 72v4l127 346q342 889 367 973q35 37 63 37q70 0 102 -140q457 -1190 459 -1212v-12q0 -55 -71 -68h-3q-70 0 -96 127l-168 442h-440l-209 -546q-33 -23 -51 -23h-8q-72 13 -72 72zM399 717h324v4l-162 424h-4zM430 1556v5q0 37 117 165q33 51 76 52h2q72 -16 71 -64 v-14q0 -35 -78 -119q-63 -96 -108 -96h-12q-56 -1 -68 71z" />
<glyph unicode="&#xc2;" horiz-adv-x="1210" d="M0 72v4l127 346q342 889 367 973q35 37 63 37q70 0 102 -140q457 -1190 459 -1212v-12q0 -55 -71 -68h-3q-70 0 -96 127l-168 442h-440l-209 -546q-33 -23 -51 -23h-8q-72 13 -72 72zM358 1552q0 34 117 166q37 53 76 54h29q35 0 125 -121q61 -65 61 -99v-4 q-12 -72 -74 -71h-6q-47 0 -121 112h-4q-80 -113 -121 -112h-10q-56 -1 -72 75zM399 717h324v4l-162 424h-4z" />
<glyph unicode="&#xc3;" horiz-adv-x="1214" d="M0 72v4l127 346q342 889 367 973q35 37 63 37q70 0 102 -140q457 -1190 459 -1212v-12q0 -55 -71 -68h-3q-70 0 -96 127l-168 442h-440l-209 -546q-33 -23 -51 -23h-8q-72 13 -72 72zM299 1597v9q0 72 137 86l17 4q76 0 188 -72l33 -4l76 22h8q72 -12 71 -71v-4 q0 -68 -124 -90l-37 -4q-80 0 -183 71l-28 4l-84 -22q-74 14 -74 71zM399 717h324v4l-162 424h-4z" />
<glyph unicode="&#xc4;" horiz-adv-x="1224" d="M0 72v4l127 346q342 889 367 973q35 37 63 37q70 0 102 -140q457 -1190 459 -1212v-12q0 -55 -71 -68h-3q-70 0 -96 127l-168 442h-440l-209 -546q-33 -23 -51 -23h-8q-72 13 -72 72zM342 1610v10q0 47 70 63h10q68 -16 67 -63v-10q0 -61 -75 -74q-72 17 -72 74zM399 717 h324v4l-162 424h-4zM629 1606v18q18 59 67 59h17q51 0 63 -77q0 -51 -76 -70q-71 13 -71 70z" />
<glyph unicode="&#xc5;" horiz-adv-x="1218" d="M0 72v4l127 348q352 913 369 975q33 37 63 37q70 0 103 -140q458 -1189 460 -1216v-12q0 -55 -71 -68h-4q-68 0 -95 127l-170 442h-442l-209 -546q-33 -23 -51 -23h-8q-72 13 -72 72zM371 1647q0 127 147 182l37 4h14q123 0 174 -147l5 -39v-11q0 -119 -140 -174l-45 -8 q-113 0 -174 115q-18 41 -18 78zM399 719h326v4l-162 426h-4zM487 1642q12 -70 72 -69q72 12 72 67v11q-12 63 -64 63h-12q-56 0 -68 -72z" />
<glyph unicode="&#xc6;" horiz-adv-x="1564" d="M0 80q0 25 242 446l493 885q31 25 45 25h594q47 0 66 -72q-16 -76 -76 -76h-502v-567h391q70 -16 70 -62v-20q0 -55 -74 -68h-387v-424h504q59 0 74 -75q0 -57 -76 -72h-576q-57 0 -71 76v495h-279q-18 -20 -166 -295l-143 -253q-29 -23 -53 -23h-4q-60 0 -72 80z M518 721h199v350z" />
<glyph unicode="&#xc7;" horiz-adv-x="1398" d="M12 727q0 367 334 596q180 109 367 109q225 0 403 -134q20 -27 21 -49q-12 -74 -74 -73q-20 0 -135 63q-120 43 -215 43q-264 0 -455 -240q-96 -156 -96 -315q0 -309 289 -489q129 -68 256 -68h10q166 0 323 100l19 4h8q70 -12 70 -69v-4q0 -92 -293 -166l-68 -8v-74 q113 -76 113 -182q0 -156 -182 -199l-54 2h-55l-59 -2q-63 20 -64 61v17q12 66 68 65h131q70 0 69 56v4q0 43 -67 55q-43 22 -43 55v142q-150 16 -316 118q-305 238 -305 582z" />
<glyph unicode="&#xc8;" horiz-adv-x="1038" d="M0 72v1288q12 72 72 72v4l18 -4h741l15 4q63 0 76 -82q-16 -70 -82 -70h-693v-510h453l53 4q51 0 70 -76q0 -47 -61 -75l-76 4h-439v-484h711q51 0 64 -79q-20 -68 -68 -68h-782q-72 13 -72 72zM283 1761q20 68 71 68h8q47 0 134 -125q59 -61 59 -94q-12 -76 -72 -76h-14 q-39 0 -139 143q-47 37 -47 84z" />
<glyph unicode="&#xc9;" d="M0 72v1288q12 72 72 72v4l18 -4h741l15 4q63 0 76 -82q-16 -70 -82 -70h-693v-510h453l53 4q51 0 70 -76q0 -47 -61 -75l-76 4h-439v-484h711q51 0 64 -79q-20 -68 -68 -68h-782q-72 13 -72 72zM283 1614q0 25 118 162q37 53 74 53h4q76 -16 76 -76q0 -29 -90 -131 q-63 -88 -94 -88h-23q-53 0 -65 80z" />
<glyph unicode="&#xca;" d="M0 72v1288q12 72 72 72v4l18 -4h741l15 4q63 0 76 -82q-16 -70 -82 -70h-693v-510h453l53 4q51 0 70 -76q0 -47 -61 -75l-76 4h-439v-484h711q51 0 64 -79q-20 -68 -68 -68h-782q-72 13 -72 72zM268 1561v16q0 33 158 203l35 8h18q47 0 119 -102q76 -82 76 -109v-16 q-15 -68 -62 -68h-26q-31 0 -117 113q-76 -113 -115 -113h-24q-47 0 -62 68z" />
<glyph unicode="&#xcb;" horiz-adv-x="1026" d="M0 72v1288q12 72 72 72v4l18 -4h741l15 4q63 0 76 -82q-16 -70 -82 -70h-693v-510h453l53 4q51 0 70 -76q0 -47 -61 -75l-76 4h-439v-484h711q51 0 64 -79q-20 -68 -68 -68h-782q-72 13 -72 72zM238 1628v12q0 47 67 64h12q68 -16 68 -64v-12q0 -59 -76 -72 q-71 17 -71 72zM524 1624v21q18 59 70 59h14q53 0 66 -80q0 -49 -76 -68q-74 13 -74 68z" />
<glyph unicode="&#xcc;" horiz-adv-x="655" d="M111 72v4q16 72 63 71h23v1133h-15q-63 0 -71 80v4q0 45 71 68l19 -5h139l14 5q76 -18 76 -76q-12 -76 -72 -76h-16v-1133h25q47 0 63 -71v-4q-12 -72 -72 -72h-176q-71 13 -71 72zM143 1733v20q0 49 76 66q41 0 121 -111q72 -78 72 -113q-14 -74 -76 -73q-45 0 -107 90 q-86 98 -86 121z" />
<glyph unicode="&#xcd;" horiz-adv-x="655" d="M139 72v4q16 72 66 71h22v1137h-14q-65 0 -74 80v2q0 47 74 70l18 -4h140l14 4q76 -14 76 -76q-12 -76 -72 -76h-14v-1137h22q47 0 64 -71v-4q-12 -72 -72 -72h-176q-74 13 -74 72zM182 1614q0 27 117 162q37 53 76 53h4q74 -14 74 -78q0 -29 -91 -131q-61 -86 -94 -86 h-22q-52 0 -64 80z" />
<glyph unicode="&#xce;" horiz-adv-x="655" d="M100 1561v4q0 37 113 161q39 57 72 58h30q45 0 136 -129q57 -57 57 -90q-12 -76 -72 -76h-8q-49 0 -113 100l-16 13q-74 -113 -121 -113h-6q-72 13 -72 72zM145 72v4q16 72 66 71h20v1137h-14q-61 0 -72 80v4q0 45 72 68l19 -4h141l14 4q76 -18 76 -76q-12 -76 -72 -76 h-14v-1137h20q49 0 66 -71v-4q-12 -72 -72 -72h-178q-72 13 -72 72z" />
<glyph unicode="&#xcf;" horiz-adv-x="655" d="M80 1612q16 72 63 71h17q68 -15 67 -61v-18q0 -55 -71 -68q-76 17 -76 76zM139 72v4q16 72 66 71h22v1133h-14q-65 0 -74 80v4q0 45 74 68l18 -5h140l14 5q76 -16 76 -76q-12 -76 -72 -76h-14v-1133h20q49 0 66 -71v-4q-12 -72 -72 -72h-176q-74 13 -74 72zM367 1608v12 q0 47 67 63h10q68 -16 68 -63v-12q0 -59 -74 -72q-71 17 -71 72z" />
<glyph unicode="&#xd0;" horiz-adv-x="1273" d="M0 723v14q0 49 72 66h80v553q16 72 63 71h221l35 3q332 0 567 -289q143 -195 144 -430q0 -373 -351 -613q-180 -98 -358 -98h-252q-51 0 -69 68v587h-84q-68 16 -68 68zM297 147h156q362 0 528 330q53 117 53 238q0 307 -284 493q-119 76 -381 76h-72v-481h283 q72 -12 71 -70v-10q-12 -68 -67 -68h-287v-508z" />
<glyph unicode="&#xd1;" horiz-adv-x="1286" d="M0 68v1294q14 70 63 70h17q46 0 80 -68l837 -1077h4v1077q12 68 68 68h12q55 0 68 -70v-1290q-12 -72 -72 -72h-4q-53 0 -117 106l-809 1033v-1071q0 -55 -71 -68h-4q-54 0 -72 68zM299 1604v6q0 72 139 88l17 4q74 0 188 -74l35 -4l70 25h12q72 -12 71 -72v-4 q0 -70 -124 -90l-37 -4q-80 0 -183 71l-30 2l-82 -20q-76 17 -76 72z" />
<glyph unicode="&#xd2;" horiz-adv-x="1517" d="M0 717q0 344 299 575q197 135 416 135q362 0 604 -333q109 -193 108 -383q0 -356 -323 -594q-184 -117 -383 -117h-14q-369 0 -603 342q-104 172 -104 375zM145 707q0 -272 242 -459q152 -102 320 -103h18q266 0 451 238q104 145 104 332q0 307 -281 487q-135 78 -284 78 q-285 0 -467 -244q-103 -149 -103 -329zM582 1749q16 72 63 72h23q35 0 102 -95q82 -90 82 -122q-16 -76 -76 -76h-2q-47 0 -121 112q-71 72 -71 109z" />
<glyph unicode="&#xd3;" horiz-adv-x="1531" d="M0 719q0 342 301 575q199 137 416 138q362 0 606 -336q109 -193 109 -383q0 -358 -324 -596q-184 -117 -385 -117h-14q-373 0 -605 342q-104 174 -104 377zM147 709q0 -274 240 -459q152 -102 322 -103h18q268 0 453 238q104 151 104 332q0 307 -283 487q-137 80 -284 80 q-283 0 -467 -246q-103 -149 -103 -329zM584 1608q0 35 108 153q41 66 76 66h14q72 -16 72 -72q0 -39 -123 -174q-23 -47 -76 -47q-57 0 -71 74z" />
<glyph unicode="&#xd4;" horiz-adv-x="1521" d="M0 717q0 344 299 575q197 135 416 135q362 0 604 -333q109 -193 108 -383q0 -356 -323 -594q-184 -117 -383 -117h-14q-369 0 -603 342q-104 172 -104 375zM145 707q0 -272 242 -459q152 -102 320 -103h18q266 0 451 238q104 145 104 332q0 307 -281 487q-135 78 -284 78 q-285 0 -467 -244q-103 -149 -103 -329zM508 1585q0 35 115 164q37 53 75 53h31q33 0 123 -121q61 -63 61 -96v-4q-12 -72 -71 -72h-8q-43 0 -119 113h-4q-82 -113 -121 -113h-12q-54 0 -70 76z" />
<glyph unicode="&#xd5;" horiz-adv-x="1527" d="M0 717q0 344 299 575q197 135 416 135q362 0 604 -333q109 -193 108 -383q0 -356 -323 -594q-184 -117 -383 -117h-14q-369 0 -603 342q-104 172 -104 375zM145 707q0 -272 242 -459q152 -102 320 -103h18q266 0 451 238q104 145 104 332q0 307 -281 487q-135 78 -284 78 q-285 0 -467 -244q-103 -149 -103 -329zM442 1675v11q0 57 84 75q27 10 64 11h18q72 0 166 -64l31 -6h16l76 22q76 -16 76 -75q0 -76 -144 -95h-24q-70 0 -166 66l-31 6h-18l-72 -18h-6q-70 16 -70 67z" />
<glyph unicode="&#xd6;" horiz-adv-x="1538" d="M0 719q0 342 301 575q199 137 416 138q362 0 606 -336q109 -193 109 -383q0 -358 -324 -596q-184 -117 -385 -117h-14q-373 0 -605 342q-104 174 -104 377zM147 709q0 -274 240 -459q152 -102 322 -103h18q268 0 453 238q104 151 104 332q0 307 -283 487q-137 80 -284 80 q-283 0 -467 -246q-103 -149 -103 -329zM428 1620v22q0 51 80 64q49 0 67 -76q-18 -76 -69 -76q-78 19 -78 66zM854 1620v22q0 51 80 64q49 0 67 -76q-18 -76 -71 -76q-76 19 -76 66z" />
<glyph unicode="&#xd7;" d="M221 420v24q0 45 103 129l61 68q-164 160 -164 182v29q18 86 86 86h17q47 0 151 -125l43 -39q160 164 182 164h39q61 0 82 -90q0 -57 -164 -203l-4 -4v-4q162 -147 162 -182l6 -21q-20 -94 -96 -94q-51 0 -158 125l-49 43q-145 -164 -194 -164h-25q-78 25 -78 76z" />
<glyph unicode="&#xd8;" horiz-adv-x="1560" d="M0 80q0 31 125 137q4 14 41 39q-166 209 -166 461q0 342 299 573q197 135 414 135q267 0 491 -196q150 152 180 151h9q72 -18 71 -69v-8q0 -41 -104 -123l-62 -62q127 -195 127 -409q0 -356 -321 -592q-184 -117 -383 -117h-14q-233 0 -437 154h-4q-152 -150 -172 -150 l-18 -4h-4q-60 0 -72 80zM145 707q0 -197 129 -351l822 774v5q-176 145 -383 145q-281 0 -465 -244q-103 -149 -103 -329zM375 256q162 -111 332 -111h18q266 0 451 238q104 150 104 330q0 156 -86 305h-4z" />
<glyph unicode="&#xd9;" horiz-adv-x="1101" d="M0 535v821q16 72 63 71h17q68 -15 67 -61v-801q0 -258 148 -348q90 -70 207 -70q219 0 329 226q23 74 23 147v836q12 72 70 71h10q68 -12 67 -67v-879q0 -223 -215 -391q-137 -90 -274 -90h-27q-233 0 -405 229q-80 124 -80 306zM369 1741v8q0 53 75 70q47 0 140 -131 q53 -53 53 -86v-9q0 -59 -76 -71q-45 0 -133 125q-59 59 -59 94z" />
<glyph unicode="&#xda;" horiz-adv-x="1105" d="M0 535v821q16 72 63 71h17q68 -15 67 -61v-801q0 -258 148 -348q90 -70 207 -70q219 0 329 226q23 74 23 147v836q12 72 70 71h10q68 -12 67 -67v-879q0 -223 -215 -391q-137 -90 -274 -90h-27q-233 0 -405 229q-80 124 -80 306zM369 1593v9q0 35 94 135q51 82 102 82 q72 -16 72 -70v-8q0 -35 -94 -135q-53 -84 -99 -84q-75 16 -75 71z" />
<glyph unicode="&#xdb;" horiz-adv-x="1122" d="M0 537v825q16 72 63 72h17q68 -15 67 -62v-805q0 -260 148 -348q94 -72 209 -72q221 0 332 228q23 74 22 147v840q12 72 70 72h10q68 -12 68 -68v-883q0 -224 -215 -393q-133 -90 -277 -90h-27q-231 0 -407 231q-80 124 -80 306zM309 1573v4q0 37 133 182q0 27 72 37h8 q47 0 135 -125q61 -66 62 -98q-18 -72 -66 -72h-18q-43 0 -103 90q-4 0 -10 17l-4 4h-4q-86 -102 -94 -103l-23 -8h-18q-58 0 -70 72z" />
<glyph unicode="&#xdc;" horiz-adv-x="1126" d="M0 537v825q16 72 63 72h17q68 -15 67 -62v-805q0 -260 148 -348q94 -72 209 -72q221 0 332 228q23 74 22 147v840q12 72 70 72h10q68 -12 68 -68v-883q0 -224 -215 -393q-133 -90 -277 -90h-27q-231 0 -407 231q-80 124 -80 306zM285 1616v10q0 49 67 66h10 q68 -16 68 -66v-10q0 -61 -74 -74q-71 17 -71 74zM571 1612v18q18 61 68 62h14q53 0 66 -80q0 -51 -76 -70q-72 13 -72 70z" />
<glyph unicode="&#xdd;" horiz-adv-x="1105" d="M0 1362q16 72 63 72h17q49 0 80 -72l344 -516h4q367 555 387 571q23 16 35 17h22q45 0 64 -72q0 -33 -129 -211l-307 -457v-610q-10 -84 -64 -84h-16q-49 0 -68 61v621q0 15 -160 252l-268 403zM406 1581q0 29 116 164q37 51 76 51h4q76 -16 76 -74q0 -31 -92 -133 q-63 -88 -94 -88h-23q-51 0 -63 80z" />
<glyph unicode="&#xde;" horiz-adv-x="1099" d="M20 76v1278q8 82 64 82h16q68 -15 68 -62v-278h389q297 0 395 -258q18 -61 19 -111v-18q0 -197 -193 -320q-94 -47 -172 -47l-24 2h-414v-276q0 -55 -72 -68h-4q-58 0 -72 76zM168 494h434q162 0 217 184l4 43q0 154 -166 215q-35 10 -110 10h-379v-452z" />
<glyph unicode="&#xdf;" horiz-adv-x="1060" d="M20 82v940q0 281 267 385q52 18 92 18h41q178 0 303 -168q68 -102 68 -217q0 -94 -60 -213v-39q0 -35 123 -174q90 -113 90 -235v-17q0 -219 -223 -331q-68 -31 -143 -31h-5q-182 0 -299 158l-4 24q16 72 72 72h6q35 0 90 -64q70 -45 140 -45q152 0 213 168l8 54v8 q0 94 -109 209q-109 113 -108 221q0 53 53 176q6 18 6 47v35q0 117 -135 194q-45 23 -105 23q-164 0 -229 -184l-6 -109v-911q0 -57 -72 -70h-4q-54 0 -70 76z" />
<glyph unicode="&#xe0;" horiz-adv-x="1146" d="M29 504q0 279 272 440q117 55 227 55q283 0 449 -276q51 -111 51 -234v-423q0 -53 -70 -66h-4q-46 0 -67 55v2l2 93v4q-160 -154 -346 -154h-29q-254 0 -424 256q-61 123 -61 248zM170 496q0 -217 219 -328q74 -27 125 -27h29q182 0 299 183q45 90 45 165v15 q0 209 -209 319q-68 33 -150 33h-4q-221 0 -331 -229q-23 -74 -23 -119v-12zM436 1305v16q0 45 60 63h24q37 0 148 -147q29 -33 28 -59v-9q0 -55 -73 -67q-45 0 -103 88q-84 95 -84 115z" />
<glyph unicode="&#xe1;" horiz-adv-x="1112" d="M0 504q0 279 272 440q117 55 228 55q283 0 448 -276q51 -111 51 -234v-423q0 -53 -69 -66h-4q-49 0 -70 55v2l4 93v4q-160 -154 -346 -154h-29q-254 0 -424 256q-61 123 -61 248zM141 496q0 -217 219 -328q74 -27 125 -27h29q182 0 299 183q43 86 43 165v15 q0 211 -207 319q-68 33 -149 33h-4q-221 0 -332 -229q-23 -74 -23 -119v-12zM408 1169v9q0 35 112 159q37 51 74 52q74 -18 74 -68v-8q0 -31 -80 -121q-59 -90 -115 -90h-4q-46 -1 -61 67z" />
<glyph unicode="&#xe2;" horiz-adv-x="1138" d="M0 506q0 281 274 442q117 55 228 56q283 0 450 -279q51 -111 52 -233v-426q0 -53 -70 -66h-2q-51 0 -72 55v4l4 91v4q-164 -154 -348 -154h-29q-256 0 -426 256q-61 123 -61 250zM143 498q0 -219 219 -328q74 -27 125 -27h29q186 0 301 183q43 86 43 166v14 q0 211 -209 321q-68 33 -149 33h-4q-221 0 -332 -229q-23 -74 -23 -121v-12zM303 1176q0 37 105 147q45 70 88 70l2 -4h4l4 4q51 0 125 -107q70 -72 69 -110q-12 -72 -73 -72q-47 0 -117 104l-4 4h-8q-70 -109 -121 -108q-74 15 -74 72z" />
<glyph unicode="&#xe3;" horiz-adv-x="1120" d="M0 508q0 283 276 444q117 55 228 56q287 0 452 -281q51 -111 52 -233v-428q0 -53 -70 -66h-4q-49 0 -70 55v4l4 93v4q-166 -156 -350 -156h-29q-256 0 -426 258q-63 121 -63 250zM143 500q0 -219 222 -330q76 -27 124 -27h29q184 0 301 185q45 84 45 166v14 q0 213 -209 323q-72 33 -151 33h-4q-223 0 -334 -231q-23 -74 -23 -121v-12zM264 1257v13q0 55 82 73q23 10 62 11h18q74 0 164 -64l28 -6h19l74 23q74 -15 73 -74q0 -74 -141 -92h-25q-74 0 -161 61l-31 8h-18l-70 -18h-6q-68 12 -68 65z" />
<glyph unicode="&#xe4;" horiz-adv-x="1134" d="M0 506q0 281 274 442q117 55 228 56q283 0 450 -279q51 -111 52 -233v-426q0 -53 -70 -66h-2q-51 0 -72 55v4l4 91v4q-164 -154 -348 -154h-29q-256 0 -426 256q-61 123 -61 250zM143 498q0 -219 219 -328q74 -27 125 -27h29q186 0 301 183q43 86 43 166v14 q0 211 -209 321q-68 33 -149 33h-4q-221 0 -332 -229q-23 -74 -23 -121v-12zM289 1174v10q0 45 65 61h13q66 -16 65 -61v-10q0 -57 -74 -70q-69 13 -69 70zM567 1169v19q18 57 68 57h14q49 0 62 -76q0 -47 -72 -65q-72 12 -72 65z" />
<glyph unicode="&#xe5;" horiz-adv-x="1130" d="M0 506q0 281 274 442q117 55 228 56q283 0 450 -279q51 -111 52 -233v-426q0 -53 -70 -66h-2q-51 0 -72 55v4l4 91v4q-164 -154 -348 -154h-29q-256 0 -426 256q-61 123 -61 250zM143 498q0 -219 219 -328q74 -27 125 -27h29q186 0 301 183q43 86 43 166v14 q0 211 -209 321q-68 33 -149 33h-4q-221 0 -332 -229q-23 -74 -23 -121v-12zM334 1260v12q0 123 149 172l33 4q104 0 166 -111q18 -39 18 -77q0 -123 -143 -175l-37 -4h-14q-117 0 -168 144zM446 1253q18 -59 60 -59h14q55 0 66 70q-12 70 -70 69q-70 -12 -70 -65v-15z" />
<glyph unicode="&#xe6;" horiz-adv-x="1959" d="M0 508q0 276 274 440q117 55 226 56q264 0 432 -244h4q90 156 276 219q80 20 150 20q280 0 442 -270q53 -109 54 -211v-47q-12 -70 -68 -70h-768v-4q37 -121 139 -188q98 -63 197 -64q89 0 196 56l21 4q72 -18 72 -74q0 -94 -240 -127l-53 -4q-193 0 -355 150v-80 q0 -63 -75 -70h-4q-37 0 -62 57l4 88v13q-160 -154 -348 -154h-29q-256 0 -424 254q-61 123 -61 250zM141 500q0 -217 219 -328q76 -27 125 -27h29q182 0 299 185q45 90 45 164v14q0 211 -209 321q-68 33 -149 33h-2q-223 0 -334 -229q-23 -74 -23 -121v-12zM1012 545h696v4 q0 96 -117 219q-111 86 -233 86q-186 0 -303 -174q-43 -83 -43 -135z" />
<glyph unicode="&#xe7;" horiz-adv-x="985" d="M8 498q0 244 215 407q135 90 285 90q193 0 348 -143q10 -16 10 -39v-2q-12 -70 -67 -70h-4q-25 0 -117 70q-82 41 -160 41h-22q-211 0 -320 -223q-25 -74 -24 -133q0 -217 221 -328q74 -27 141 -27q123 0 248 103l29 8h12q51 0 63 -70v-4q0 -76 -231 -164l-78 -10v-47 q111 -72 111 -178q0 -154 -179 -197l-51 4h-55l-57 -4q-63 23 -64 62v14q12 66 68 66h127q68 0 67 55v4q0 41 -63 53q-45 23 -45 55v115q-88 12 -221 103q-187 168 -187 389z" />
<glyph unicode="&#xe8;" horiz-adv-x="1126" d="M0 502q0 279 260 440q125 61 238 62q293 0 450 -275q55 -108 56 -233v-21q-12 -72 -70 -72h-772q43 -147 186 -223q80 -33 158 -33q84 0 194 56h23q66 -12 65 -68v-10q0 -92 -264 -125h-26q-268 0 -432 254q-66 121 -66 248zM150 547h704q0 74 -88 192q-121 115 -238 115 h-41q-175 0 -288 -172q-40 -67 -49 -135zM408 1300v15q0 47 57 65h27q35 0 147 -149q29 -33 29 -57v-9q0 -57 -74 -69q-45 0 -102 88q-84 93 -84 116z" />
<glyph unicode="&#xe9;" horiz-adv-x="1116" d="M0 502q0 279 260 440q125 61 238 62q293 0 450 -275q55 -108 56 -233v-21q-12 -72 -70 -72h-772q43 -147 186 -223q80 -33 158 -33q84 0 194 56h23q66 -12 65 -68v-10q0 -92 -264 -125h-26q-268 0 -432 254q-66 121 -66 248zM150 547h704q0 74 -88 192q-121 115 -238 115 h-41q-175 0 -288 -172q-40 -67 -49 -135zM408 1165v9q0 33 112 159q37 51 74 51q74 -18 74 -69v-6q0 -27 -82 -121q-61 -92 -113 -92h-4q-45 -1 -61 69z" />
<glyph unicode="&#xea;" horiz-adv-x="1142" d="M0 502q0 279 260 440q125 61 238 62q293 0 450 -275q55 -108 56 -233v-21q-12 -72 -70 -72h-772q43 -147 186 -223q80 -33 158 -33q84 0 194 56h23q66 -12 65 -68v-10q0 -92 -264 -125h-26q-268 0 -432 254q-66 121 -66 248zM150 547h704q0 74 -88 192q-121 115 -238 115 h-41q-175 0 -288 -172q-40 -67 -49 -135zM303 1176q0 37 105 147q45 70 88 70l2 -4h4l4 4q51 0 125 -107q70 -72 69 -110q-12 -72 -73 -72q-47 0 -117 104l-4 4h-8q-70 -109 -121 -108q-74 15 -74 72z" />
<glyph unicode="&#xeb;" horiz-adv-x="1120" d="M0 502q0 276 260 438q125 61 238 61q289 0 448 -274q55 -108 55 -233v-19q-12 -74 -69 -74h-770q43 -145 184 -223q80 -33 160 -33q84 0 192 56h23q66 -12 65 -66v-10q0 -92 -264 -125h-24q-268 0 -432 252q-66 121 -66 250zM150 545h702q0 78 -88 192q-121 115 -238 115 h-41q-175 0 -288 -172q-37 -63 -47 -135zM289 1169v13q0 45 65 61h13q63 -14 63 -61v-13q0 -57 -72 -69q-69 16 -69 69zM567 1165v21q18 57 66 57h14q49 0 62 -78q0 -47 -72 -65q-70 12 -70 65z" />
<glyph unicode="&#xec;" horiz-adv-x="512" d="M80 1264v14q0 47 59 65h25q35 0 147 -149q29 -33 29 -59v-7q0 -57 -74 -69q-45 0 -102 88q-84 97 -84 117zM164 74v846q10 84 74 84q70 -18 69 -64v-874q0 -53 -69 -66h-5q-53 0 -69 74z" />
<glyph unicode="&#xed;" horiz-adv-x="512" d="M121 1133v8q0 33 112 159q37 53 74 54q74 -18 74 -72v-6q0 -29 -82 -123q-59 -90 -113 -90h-4q-47 0 -61 70zM164 74v850q10 84 74 84q70 -18 69 -64v-878q0 -53 -69 -66h-5q-53 0 -69 74z" />
<glyph unicode="&#xee;" horiz-adv-x="512" d="M31 1130q0 39 102 148q45 70 88 70l4 -2h4l4 2q51 0 125 -107q70 -76 70 -111q-12 -74 -74 -73q-47 0 -116 106l-5 4h-8q-70 -111 -121 -110q-73 16 -73 73zM160 74v854q8 84 73 84q70 -18 70 -64v-880q0 -55 -70 -68h-4q-53 0 -69 74z" />
<glyph unicode="&#xef;" horiz-adv-x="512" d="M20 1198v12q0 47 66 64h10q68 -16 68 -64v-12q0 -57 -74 -70q-70 15 -70 70zM164 74v850q8 84 74 84q70 -18 69 -64v-878q0 -53 -69 -66h-5q-53 0 -69 74zM299 1194v20q18 59 68 60h14q49 0 61 -80q0 -47 -73 -66q-70 13 -70 66z" />
<glyph unicode="&#xf0;" horiz-adv-x="1116" d="M0 502q0 244 215 409q137 92 287 93l102 -11v4l-76 117q-133 -84 -157 -84h-17q-45 0 -61 70v4q0 51 110 102l48 29q-41 63 -41 80v18q18 59 65 60h17q35 0 83 -80q147 90 173 90h8q66 -16 65 -66v-14q0 -45 -170 -131v-4l281 -430q72 -119 72 -256q0 -283 -267 -443 q-119 -59 -225 -59h-29q-201 0 -377 190q-106 150 -106 312zM147 496q0 -203 195 -314q68 -35 150 -35h20q209 0 319 215q25 68 25 134v16q0 143 -127 264q-102 80 -231 80q-227 0 -332 -238q-18 -57 -19 -106v-16z" />
<glyph unicode="&#xf1;" horiz-adv-x="1107" d="M0 74v844q10 84 74 83q70 -18 69 -61v-80q160 141 346 141q207 0 367 -172q117 -145 117 -303v-465q0 -45 -70 -61h-4q-70 12 -70 70v409q0 276 -235 363q-55 14 -105 14h-10q-201 0 -307 -205q-29 -68 -29 -200v-385q0 -53 -69 -66h-4q-54 0 -70 74zM256 1266v12 q0 53 82 72q28 12 61 12h19q66 0 160 -64l28 -8h21l71 23q74 -15 74 -74q0 -72 -139 -90h-27q-68 0 -160 61l-28 9h-19l-69 -19h-8q-66 13 -66 66z" />
<glyph unicode="&#xf2;" horiz-adv-x="1116" d="M0 502q0 244 215 409q137 92 287 93q195 0 352 -148q150 -156 150 -354q0 -283 -267 -443q-119 -59 -225 -59h-29q-201 0 -377 190q-106 150 -106 312zM147 496q0 -203 195 -314q68 -35 150 -35h20q209 0 319 215q25 68 25 134v16q0 170 -151 283q-92 61 -207 61 q-227 0 -332 -238q-18 -57 -19 -106v-16zM410 1313v12q0 49 59 68h27q31 0 145 -152q31 -31 31 -57v-8q0 -55 -74 -68q-45 0 -102 86q-86 92 -86 119z" />
<glyph unicode="&#xf3;" horiz-adv-x="1116" d="M0 500q0 242 215 407q137 92 285 92q197 0 350 -145q150 -156 149 -354q0 -283 -266 -443q-113 -57 -223 -57h-29q-200 0 -375 190q-106 150 -106 310zM145 492q0 -199 195 -310q70 -37 149 -37h21q207 0 317 215q27 74 27 132v18q0 166 -154 281q-92 63 -204 63 q-227 0 -332 -238q-18 -59 -19 -106v-18zM408 1169v9q0 35 112 159q37 51 74 52q74 -18 74 -68v-8q0 -31 -80 -121q-59 -90 -115 -90h-4q-46 -1 -61 67z" />
<glyph unicode="&#xf4;" horiz-adv-x="1116" d="M0 500q0 242 215 407q137 92 285 92q197 0 350 -145q150 -156 149 -354q0 -283 -266 -443q-113 -57 -223 -57h-29q-200 0 -375 190q-106 150 -106 310zM145 492q0 -199 195 -310q70 -37 149 -37h21q207 0 317 215q27 74 27 132v18q0 166 -154 281q-92 63 -204 63 q-227 0 -332 -238q-18 -59 -19 -106v-18zM303 1169q0 39 103 148q43 68 86 67l4 -2h4l4 2q49 0 123 -104q70 -76 69 -111q-12 -72 -73 -71q-49 0 -115 104l-4 4h-8q-70 -109 -119 -108q-74 16 -74 71z" />
<glyph unicode="&#xf5;" horiz-adv-x="1116" d="M0 502q0 244 215 409q137 92 287 93q195 0 352 -148q150 -156 150 -354q0 -283 -267 -443q-119 -59 -225 -59h-29q-201 0 -377 190q-106 150 -106 312zM147 496q0 -203 195 -314q68 -35 150 -35h20q209 0 319 215q25 68 25 134v16q0 170 -151 283q-92 61 -207 61 q-227 0 -332 -238q-18 -57 -19 -106v-16zM264 1253v11q0 55 80 73q25 10 64 11h18q68 0 160 -62l30 -6h19l72 20q74 -14 73 -71q0 -74 -139 -92h-25q-70 0 -161 61l-29 8h-18l-70 -18h-8q-66 12 -66 65z" />
<glyph unicode="&#xf6;" horiz-adv-x="1112" d="M0 500q0 242 215 407q137 92 285 92q197 0 350 -145q150 -156 149 -354q0 -283 -266 -443q-113 -57 -223 -57h-29q-200 0 -375 190q-106 150 -106 310zM145 492q0 -199 195 -310q70 -37 149 -37h21q207 0 317 215q27 74 27 132v18q0 166 -154 281q-92 63 -204 63 q-227 0 -332 -238q-18 -59 -19 -106v-18zM289 1167v11q0 45 65 61h11q66 -16 65 -61v-11q0 -57 -74 -69q-67 16 -67 69zM565 1163v19q18 57 66 57h14q49 0 62 -76q0 -47 -72 -65q-70 12 -70 65z" />
<glyph unicode="&#xf7;" d="M150 717v14q0 55 75 70h609q76 -14 75 -76v-12q0 -51 -71 -70h-617q-71 17 -71 74zM422 408v20q0 76 104 100h9q86 0 104 -112v-4q0 -82 -109 -105q-108 23 -108 101zM422 1024v8q25 100 100 101h4q92 0 113 -101v-16q-20 -100 -100 -101h-9q-108 13 -108 109z" />
<glyph unicode="&#xf8;" horiz-adv-x="1167" d="M49 80q0 31 98 125q-98 135 -98 295q0 240 215 405q137 92 285 92q143 0 282 -92q86 106 132 107h4q57 0 69 -76q0 -29 -102 -127q113 -137 113 -309q0 -283 -267 -443q-113 -57 -221 -57h-29q-135 0 -284 102q-80 -98 -119 -98h-14q-52 0 -64 76zM197 492q0 -90 49 -183 h4l477 492q-74 51 -182 51q-227 0 -332 -238q-16 -51 -16 -104v-18zM348 205q96 -59 191 -60h20q207 0 318 215q25 68 24 132v18q0 104 -70 197z" />
<glyph unicode="&#xf9;" horiz-adv-x="1107" d="M0 518v400q8 84 74 83q70 -18 69 -63v-389q0 -250 142 -336q92 -70 200 -70q215 0 324 219q20 68 20 142v424q15 74 74 73q70 -18 70 -69v-871q0 -45 -70 -61h-4q-70 12 -70 70v69h-4q-156 -139 -327 -139h-27q-225 0 -393 223q-78 121 -78 295zM410 1309v14q0 47 59 66 h25q33 0 145 -150q31 -35 31 -57v-8q0 -57 -74 -70q-45 0 -102 88q-84 94 -84 117z" />
<glyph unicode="&#xfa;" horiz-adv-x="1103" d="M0 522v400q10 84 74 84q70 -18 69 -62v-393q0 -252 144 -338q90 -70 202 -70q215 0 322 222q23 74 23 143v426q14 72 73 72q70 -14 70 -68v-877q0 -47 -70 -61h-4q-70 12 -69 70v69h-5q-152 -139 -329 -139h-27q-227 0 -395 223q-78 121 -78 299zM412 1180v6 q0 35 112 162q37 51 74 51q74 -14 74 -70v-6q0 -31 -80 -123q-59 -90 -115 -90h-4q-47 0 -61 70z" />
<glyph unicode="&#xfb;" horiz-adv-x="1112" d="M0 524v404q8 84 74 84q70 -18 69 -64v-393q0 -256 146 -342q90 -70 203 -70q217 0 323 222q23 74 23 145v428q15 74 73 74q70 -18 70 -72v-877q0 -49 -70 -63h-4q-70 12 -69 70v69h-4q-152 -139 -332 -139h-27q-227 0 -397 225q-78 121 -78 299zM305 1186q0 37 105 147 q43 70 88 70l4 -4h4l4 4q51 0 125 -107q70 -76 70 -110q-12 -76 -74 -76q-47 0 -119 109l-2 4h-8q-72 -113 -121 -113q-76 17 -76 76z" />
<glyph unicode="&#xfc;" horiz-adv-x="1107" d="M0 518v400q10 84 74 83q70 -18 69 -61v-391q0 -250 142 -336q92 -70 202 -70q213 0 322 219q20 68 20 144v424q14 72 74 71q70 -16 70 -67v-873q0 -45 -70 -61h-4q-70 12 -70 70v69h-2q-156 -139 -329 -139h-27q-225 0 -393 223q-78 121 -78 295zM289 1171v11q0 45 65 61 h13q66 -16 65 -61v-11q0 -57 -74 -69q-69 16 -69 69zM567 1167v19q18 57 66 57h14q51 0 64 -76q0 -47 -74 -65q-70 12 -70 65z" />
<glyph unicode="&#xfd;" horiz-adv-x="989" d="M18 936v4q15 74 74 74q63 0 107 -148q242 -580 245 -594h5q291 709 303 723q27 23 51 23q74 -14 74 -72v-2q-3 -28 -363 -885q-168 -416 -190 -446q-20 -16 -48 -23q-74 16 -73 64v18q0 18 164 410v4zM430 1186v8q0 33 113 160q37 53 73 53q74 -18 74 -72v-6 q0 -29 -82 -121q-61 -92 -112 -92h-4q-48 0 -62 70z" />
<glyph unicode="&#xfe;" horiz-adv-x="1130" d="M10 -342v1655q10 82 64 82h12q68 -16 68 -60v-481q160 154 360 154q195 0 352 -148q152 -158 152 -356q0 -285 -268 -447q-113 -57 -226 -57h-28q-178 0 -342 150v-506q0 -49 -74 -64q-54 0 -70 78zM158 496q0 -203 194 -314q68 -35 152 -35h20q211 0 322 218 q25 68 24 131v18q0 168 -153 285q-92 61 -207 61q-229 0 -334 -239q-18 -59 -18 -107v-18z" />
<glyph unicode="&#xff;" horiz-adv-x="989" d="M10 920v4q14 72 74 71q61 0 104 -145q238 -565 244 -592h4q285 700 303 721q23 20 52 20q74 -16 73 -69v-2q-2 -23 -360 -881q-168 -416 -191 -444q-20 -16 -49 -23q-72 14 -71 62v18q0 18 163 410v4zM236 1167v13q0 45 65 61h12q66 -16 66 -61v-13q0 -57 -74 -69 q-69 14 -69 69zM514 1163v19q18 59 66 59h14q49 0 61 -78q0 -47 -71 -65q-70 12 -70 65z" />
<glyph unicode="&#x100;" horiz-adv-x="1183" d="M0 72v4l127 346q342 891 365 969q33 37 63 36q68 0 102 -139q457 -1188 459 -1208v-12q0 -55 -72 -68h-4q-68 0 -94 127l-168 440h-440l-207 -544q-33 -23 -51 -23h-8q-72 13 -72 72zM72 1626q18 72 69 72h844q72 -12 72 -72v-10q-12 -72 -68 -72h-848q-61 0 -69 82z M397 715h324v4l-162 424h-4z" />
<glyph unicode="&#x101;" horiz-adv-x="1198" d="M43 514q0 287 279 453q125 57 233 57q289 0 459 -285q51 -111 51 -239v-432q0 -55 -72 -68h-4q-47 0 -69 55v4l4 95v4q-168 -158 -357 -158h-28q-260 0 -435 260q-61 121 -61 254zM74 1227q18 70 69 69h844q72 -12 72 -69v-13q-12 -70 -68 -69h-848q-61 0 -69 82z M188 508q0 -223 224 -336q76 -27 127 -27h28q188 0 307 187q45 94 46 168v14q0 215 -213 330q-72 33 -152 33h-4q-225 0 -340 -236q-23 -78 -23 -123v-10z" />
<glyph unicode="&#x102;" horiz-adv-x="1200" d="M0 72v4l127 346q342 891 365 969q33 37 63 36q68 0 102 -139q457 -1188 459 -1208v-12q0 -55 -72 -68h-4q-68 0 -94 127l-168 440h-440l-207 -544q-33 -23 -51 -23h-8q-72 13 -72 72zM279 1710v25q16 72 71 71h12q53 0 84 -84q51 -59 119 -59q102 0 150 111q33 33 59 32 h8q76 -12 76 -75v-5q0 -82 -156 -192q-76 -29 -133 -29h-8q-190 0 -282 205zM397 715h324v4l-162 424h-4z" />
<glyph unicode="&#x103;" horiz-adv-x="1116" d="M0 514q0 287 281 453q125 57 231 57q289 0 459 -285q53 -117 53 -239v-432q0 -55 -72 -68h-4q-51 0 -71 55v4l4 95v4q-168 -158 -355 -158h-28q-260 0 -435 260q-63 125 -63 254zM145 508q0 -221 226 -336q76 -27 127 -27h28q188 0 308 187q43 90 43 168v14 q0 217 -211 330q-72 33 -154 33h-4q-225 0 -340 -236q-23 -78 -23 -123v-10zM233 1319v22q16 72 72 72h12q53 0 84 -84q51 -59 121 -59q100 0 148 112q31 31 59 31h8q76 -12 76 -76v-4q0 -80 -156 -190q-76 -29 -131 -29h-8q-193 0 -285 205z" />
<glyph unicode="&#x104;" horiz-adv-x="1337" d="M4 53v4l131 353q348 901 373 989q35 39 63 39q70 0 101 -131q479 -1247 479 -1268l4 -29v-94q0 -66 -84 -78q-31 -18 -31 -49v-8q0 -43 58 -49h145q74 -12 74 -74v-2q-14 -74 -66 -74h-161q-141 0 -195 162l-8 45q0 113 119 188v19q-14 63 -207 563h-449l-211 -555 q-33 -23 -53 -22h-8q-74 12 -74 71zM412 709h329v4l-166 434h-4z" />
<glyph unicode="&#x105;" horiz-adv-x="1239" d="M4 498q0 287 281 452q125 57 231 58q293 0 463 -285q51 -115 51 -240v-446l-4 -4l4 -4v-113q0 -59 -90 -78q-23 -18 -22 -37v-18q8 -45 57 -45h141q59 0 72 -76q-16 -72 -64 -72h-157q-141 0 -195 162l-4 45q0 106 117 180l-4 52l8 90v18q-164 -156 -357 -155h-30 q-262 0 -434 262q-64 125 -64 254zM150 489q0 -221 225 -335q76 -27 127 -27h30q188 0 308 186q45 88 45 170v15q0 217 -213 329q-72 33 -156 33h-2q-229 0 -342 -235q-23 -78 -22 -123v-13z" />
<glyph unicode="&#x106;" horiz-adv-x="1249" d="M0 719q0 373 340 606q180 111 375 111q223 0 415 -136q14 -27 15 -45v-8q0 -63 -78 -71h-4l-133 67q-125 41 -215 41q-268 0 -465 -246q-98 -166 -98 -319q0 -315 294 -500q131 -68 261 -67h12q172 0 336 104h22q68 -15 68 -68v-10q0 -82 -252 -155q-84 -23 -168 -23h-18 q-354 0 -594 330q-113 188 -113 389zM537 1559v16q0 34 141 160q113 129 156 129q68 0 79 -88q0 -43 -184 -205q-68 -84 -108 -84h-13q-71 17 -71 72z" />
<glyph unicode="&#x107;" horiz-adv-x="972" d="M0 512q0 254 221 422q141 92 291 92q199 0 360 -149q12 -20 13 -37v-4q-12 -72 -72 -72h-4q-27 0 -121 72q-80 41 -164 41h-22q-219 0 -330 -230q-27 -84 -27 -137q0 -225 230 -338q74 -27 145 -27q125 0 254 107l31 6h12q55 0 68 -72v-2q0 -78 -242 -170 q-74 -14 -119 -14h-30q-207 0 -385 195q-109 155 -109 317zM326 1163v17q0 34 141 159q113 127 156 127q68 0 79 -88q0 -40 -184 -202q-68 -84 -108 -84h-13q-71 16 -71 71z" />
<glyph unicode="&#x108;" horiz-adv-x="1253" d="M0 719q0 373 340 606q180 111 375 111q223 0 415 -136q14 -27 15 -45v-8q0 -63 -78 -71h-4l-133 67q-125 41 -215 41q-268 0 -465 -246q-98 -166 -98 -319q0 -315 294 -500q131 -68 261 -67h12q172 0 336 104h22q68 -15 68 -68v-10q0 -82 -252 -155q-84 -23 -168 -23h-18 q-354 0 -594 330q-113 188 -113 389zM471 1575v10q0 37 121 168q37 61 80 62h28q45 0 136 -129q63 -63 63 -101v-10q-16 -74 -72 -74h-12q-43 0 -127 121h-4q-84 -121 -129 -121h-10q-74 17 -74 74z" />
<glyph unicode="&#x109;" horiz-adv-x="980" d="M0 512q0 254 221 422q141 92 291 92q199 0 360 -149q12 -20 13 -37v-4q-12 -72 -72 -72h-4q-27 0 -121 72q-80 41 -164 41h-22q-219 0 -330 -230q-27 -84 -27 -137q0 -225 230 -338q74 -27 145 -27q125 0 254 107l31 6h12q55 0 68 -72v-2q0 -78 -242 -170 q-74 -14 -119 -14h-30q-207 0 -385 195q-109 155 -109 317zM309 1208v13q0 41 119 168q37 61 82 61h27q49 0 137 -129q63 -63 63 -100v-13q-16 -72 -71 -71h-13q-45 0 -129 120h-4q-84 -121 -127 -120h-12q-72 16 -72 71z" />
<glyph unicode="&#x10a;" horiz-adv-x="1257" d="M0 719q0 373 340 606q180 111 375 111q223 0 415 -136q14 -27 15 -45v-8q0 -63 -78 -71h-4l-133 67q-125 41 -215 41q-268 0 -465 -246q-98 -166 -98 -319q0 -315 294 -500q131 -68 261 -67h12q172 0 336 104h22q68 -15 68 -68v-10q0 -82 -252 -155q-84 -23 -168 -23h-18 q-354 0 -594 330q-113 188 -113 389zM600 1663q0 77 86 111q12 6 33 6q92 0 117 -107v-20q0 -66 -82 -103q-12 -6 -35 -6h-2q-97 0 -117 119z" />
<glyph unicode="&#x10b;" horiz-adv-x="972" d="M0 512q0 254 221 422q141 92 291 92q199 0 360 -149q12 -20 13 -37v-4q-12 -72 -72 -72h-4q-27 0 -121 72q-80 41 -164 41h-22q-219 0 -330 -230q-27 -84 -27 -137q0 -225 230 -338q74 -27 145 -27q125 0 254 107l31 6h12q55 0 68 -72v-2q0 -78 -242 -170 q-74 -14 -119 -14h-30q-207 0 -385 195q-109 155 -109 317zM416 1264q0 76 86 108q12 6 33 6q90 0 114 -106v-21q0 -63 -82 -100q-12 -6 -32 -6h-5q-94 0 -114 119z" />
<glyph unicode="&#x10c;" horiz-adv-x="1239" d="M0 719q0 373 340 606q180 111 375 111q223 0 415 -136q14 -27 15 -45v-8q0 -63 -78 -71h-4l-133 67q-125 41 -215 41q-268 0 -465 -246q-98 -166 -98 -319q0 -315 294 -500q131 -68 261 -67h12q172 0 336 104h22q68 -15 68 -68v-10q0 -82 -252 -155q-84 -23 -168 -23h-18 q-354 0 -594 330q-113 188 -113 389zM483 1729v12q16 72 72 71h12q47 0 129 -118h4q82 119 127 118h13q72 -16 71 -71v-12q0 -33 -96 -140q-61 -88 -102 -88h-29q-45 0 -131 123q-70 70 -70 105z" />
<glyph unicode="&#x10d;" horiz-adv-x="989" d="M0 512q0 254 221 422q141 92 291 92q199 0 360 -149q12 -20 13 -37v-4q-12 -72 -72 -72h-4q-27 0 -121 72q-80 41 -164 41h-22q-219 0 -330 -230q-27 -84 -27 -137q0 -225 230 -338q74 -27 145 -27q125 0 254 107l31 6h12q55 0 68 -72v-2q0 -78 -242 -170 q-74 -14 -119 -14h-30q-207 0 -385 195q-109 155 -109 317zM291 1356v10q16 74 71 74h13q45 0 129 -121h4q84 121 127 121h12q72 -16 72 -74v-10q0 -35 -96 -142q-61 -88 -105 -88h-26q-45 0 -134 125q-67 68 -67 105z" />
<glyph unicode="&#x10e;" horiz-adv-x="1161" d="M0 72v1294q12 72 72 72v4l18 -4h195l41 4q322 0 561 -283q152 -199 151 -446q0 -344 -303 -580q-193 -133 -405 -133h-258q-72 13 -72 72zM147 147h164q360 0 535 351q45 117 45 227q0 260 -232 455q-143 113 -423 112h-89v-1145zM250 1735v12q16 72 72 72h12 q45 0 129 -121h4q84 121 127 121h12q72 -16 72 -72v-12q0 -35 -96 -142q-61 -88 -105 -88h-26q-45 0 -134 125q-67 68 -67 105z" />
<glyph unicode="&#x10f;" horiz-adv-x="1341" d="M0 518q0 250 223 422q139 94 295 94q199 0 371 -153v426l-4 59q23 66 63 66h15q68 -15 67 -62v-747l4 -127q0 -147 -121 -312q-172 -184 -385 -184h-28q-209 0 -389 197q-111 155 -111 321zM147 510q0 -231 242 -344q65 -18 117 -19h22q227 0 340 242q20 82 21 113v22 q0 229 -248 344q-82 20 -117 21h-14q-225 0 -340 -240q-23 -72 -23 -121v-18zM1077 1018v12q61 145 62 236v12q0 61 -49 143v21q16 72 63 71h29q86 0 112 -235v-21q0 -129 -143 -247q-29 -16 -45 -17q-21 7 -29 25z" />
<glyph unicode="&#x110;" horiz-adv-x="1302" d="M4 770q12 78 72 78h108v518q12 72 72 72v4l20 -4h193l43 4q319 0 559 -283q154 -201 154 -446q0 -344 -303 -580q-193 -133 -408 -133h-258q-72 12 -72 72v622h-49l-63 -4q-68 25 -68 80zM334 147h162q360 0 534 351q45 117 45 227q0 262 -229 455q-143 113 -426 112h-86 v-444h182l37 4q53 0 76 -82q0 -55 -70 -80l-59 4h-166v-547z" />
<glyph unicode="&#x111;" horiz-adv-x="1341" d="M31 518q0 250 223 422q139 94 295 94q199 0 371 -153v276h-111l-64 -4q-68 25 -67 80q12 76 72 76v4l38 -4h132l-5 57q23 66 64 66h14q70 -16 70 -62v-61h127l35 4q53 0 75 -80q0 -55 -67 -80l-59 4h-111v-534l4 -127q0 -143 -123 -312q-172 -184 -385 -184h-29 q-207 0 -389 197q-110 155 -110 321zM178 510q0 -231 242 -344q65 -18 117 -19h22q227 0 340 242q20 82 21 113v22q0 230 -246 344q-82 20 -119 21h-14q-225 0 -340 -240q-23 -72 -23 -121v-18z" />
<glyph unicode="&#x112;" horiz-adv-x="1099" d="M14 1657q18 70 72 69h844q70 -12 69 -69v-12q-12 -70 -67 -70h-846q-64 0 -72 82zM57 72v1288q12 72 72 72v4l18 -4h742l14 4q63 0 76 -82q-16 -70 -82 -70h-692v-510h452l54 4q49 0 67 -76q0 -49 -59 -75l-76 4h-438v-484h710q51 0 64 -79q-20 -68 -68 -68h-782 q-72 13 -72 72z" />
<glyph unicode="&#x113;" horiz-adv-x="1103" d="M0 502q0 279 260 440q125 61 238 62q293 0 450 -275q55 -108 56 -233v-21q-12 -72 -70 -72h-772q43 -147 186 -223q80 -33 158 -33q84 0 194 56h23q66 -12 65 -68v-10q0 -92 -264 -125h-26q-268 0 -432 254q-66 121 -66 248zM14 1247q18 72 72 72h844q70 -12 69 -72v-10 q-12 -72 -67 -72h-846q-64 0 -72 82zM150 547h704q0 74 -88 192q-121 115 -238 115h-41q-175 0 -288 -172q-40 -67 -49 -135z" />
<glyph unicode="&#x114;" horiz-adv-x="1050" d="M35 72v1288q12 72 71 72v4l21 -4h739l15 4q63 0 75 -82q-16 -70 -82 -70h-692v-510h455l51 4q51 0 70 -76q0 -47 -62 -75l-75 4h-439v-484h711q51 0 63 -79q-23 -68 -67 -68h-783q-71 13 -71 72zM219 1729v22q16 74 74 74h10q53 0 84 -84q51 -61 121 -62q100 0 147 113 q33 33 62 33h8q76 -12 76 -76v-4q0 -82 -158 -193q-76 -29 -131 -28h-8q-193 0 -285 205z" />
<glyph unicode="&#x115;" horiz-adv-x="1099" d="M8 502q0 279 260 440q125 61 240 62q293 0 450 -275q55 -108 56 -233v-21q-12 -72 -72 -72h-772q43 -147 186 -223q80 -33 158 -33q84 0 195 56h22q66 -12 66 -68v-10q0 -92 -265 -125h-24q-268 0 -432 254q-68 125 -68 248zM160 547h702q0 74 -88 192q-121 115 -237 115 h-41q-175 0 -289 -172q-37 -63 -47 -135zM229 1339v25q16 72 72 72h12q53 0 84 -84q51 -59 119 -60q102 0 150 113q31 31 59 31h8q76 -12 76 -76v-4q0 -82 -156 -193q-72 -27 -133 -26h-8q-191 -1 -283 202z" />
<glyph unicode="&#x116;" horiz-adv-x="1069" d="M31 72v1288q12 72 71 72v4l21 -4h739l15 4q63 0 75 -82q-16 -70 -82 -70h-692v-510h455l51 4q51 0 70 -76q0 -47 -62 -75l-76 4h-438v-484h711q51 0 63 -79q-23 -68 -67 -68h-783q-71 13 -71 72zM385 1669q0 77 86 111q12 6 33 6q92 0 117 -109v-20q0 -63 -82 -101 q-12 -6 -35 -6h-2q-97 0 -117 119z" />
<glyph unicode="&#x117;" horiz-adv-x="1103" d="M23 502q0 279 260 440q127 61 237 62q293 0 451 -275q55 -108 55 -233v-21q-12 -72 -70 -72h-774q43 -145 189 -223q80 -33 157 -33q84 0 195 56h20q68 -12 68 -68v-10q0 -92 -264 -125h-27q-268 0 -432 254q-65 121 -65 248zM172 547h705q0 74 -89 192 q-121 115 -237 115h-41q-178 0 -291 -172q-37 -63 -47 -135zM424 1233q0 77 86 110q12 6 33 7q92 0 116 -109v-20q0 -63 -81 -101q-12 -6 -35 -6h-2q-97 0 -117 119z" />
<glyph unicode="&#x118;" horiz-adv-x="1050" d="M31 72v1288q12 72 71 72v4l21 -4h739l15 4q63 0 75 -82q-16 -70 -82 -70h-692v-510h455l51 4q51 0 70 -76q0 -47 -62 -75l-76 4h-438v-484h711q51 0 63 -79q-23 -68 -67 -68h-156q0 -2 1 -5t1 -5v-103q0 -57 -80 -69q-25 -18 -24 -47q0 -53 65 -54h103l16 4 q70 -14 70 -65v-8q0 -45 -58 -68l-73 4h-35l-58 -4q-70 0 -143 92q-25 49 -25 84v29q0 98 107 156v4l-4 55h-490q-71 13 -71 72z" />
<glyph unicode="&#x119;" horiz-adv-x="1120" d="M23 502q0 279 260 440q127 61 237 62q293 0 451 -275q55 -108 55 -233v-21q-12 -72 -70 -72h-774q43 -145 189 -223q80 -33 157 -33q84 0 195 56h20q68 -12 68 -68v-10q0 -68 -152 -105q2 -4 3 -12v-102q0 -59 -80 -72q-27 -20 -27 -45q0 -53 68 -53h102l14 4 q72 -16 72 -68v-6q0 -45 -57 -67l-74 4h-37l-55 -4q-70 0 -144 92q-25 49 -24 84v28q0 96 104 154v4l-2 39h-2q-268 0 -432 254q-65 121 -65 248zM172 547h705q0 74 -89 192q-121 115 -237 115h-41q-178 0 -291 -172q-37 -63 -47 -135z" />
<glyph unicode="&#x11a;" horiz-adv-x="1064" d="M35 72v1288q12 72 71 72v4l21 -4h739l15 4q63 0 75 -82q-16 -70 -82 -70h-692v-510h455l51 4q51 0 70 -76q0 -47 -62 -75l-75 4h-439v-484h711q51 0 63 -79q-23 -68 -67 -68h-783q-71 13 -71 72zM285 1735v12q16 72 71 72h13q45 0 129 -121h4q84 121 127 121h12 q72 -16 72 -72v-12q0 -35 -97 -142q-61 -88 -104 -88h-27q-45 0 -133 125q-67 68 -67 105z" />
<glyph unicode="&#x11b;" horiz-adv-x="1134" d="M43 502q0 279 260 440q127 61 240 62q293 0 450 -275q55 -108 56 -233v-21q-12 -72 -70 -72h-774q43 -147 186 -223q80 -33 160 -33q82 0 192 56h23q66 -12 65 -68v-10q0 -92 -264 -125h-24q-268 0 -432 254q-68 125 -68 248zM195 547h702q0 78 -86 192 q-121 115 -240 115h-41q-175 0 -288 -172q-37 -63 -47 -135zM342 1337v13q16 72 74 71h10q47 0 129 -118h4q82 119 127 118h12q72 -16 72 -71v-13q0 -37 -94 -139q-61 -88 -105 -88h-28q-43 0 -131 125q-70 69 -70 102z" />
<glyph unicode="&#x11c;" horiz-adv-x="1284" d="M35 719q0 358 321 596q199 121 381 121q231 0 414 -127q18 -25 18 -49v-5q0 -57 -75 -71q-14 0 -148 63q-86 33 -170 33h-61q-211 0 -404 -203q-125 -170 -125 -352v-14q0 -293 273 -480q141 -80 282 -79h17q139 0 278 75v344h-272q-72 12 -72 72v2q12 74 72 74h352 q55 0 68 -74v-418q0 -94 -45 -114q-193 -113 -375 -113h-23q-354 0 -594 330q-112 186 -112 389zM508 1595v13q0 41 119 168q35 59 80 59h28q47 0 135 -127q66 -66 66 -100v-13q-16 -72 -74 -71h-10q-45 0 -129 121h-4q-84 -121 -127 -121h-12q-72 16 -72 71z" />
<glyph unicode="&#x11d;" horiz-adv-x="1165" d="M23 512q0 246 219 416q145 94 290 94q227 0 394 -191q115 -158 114 -296l-4 -127v-449q0 -125 -192 -274q-152 -98 -312 -99q-279 0 -460 250q-33 53 -33 74v10q0 51 65 66h13q49 0 84 -95q135 -168 331 -167q236 0 357 217l8 47v168q-170 -154 -354 -154h-31 q-203 0 -381 195q-108 155 -108 315zM168 506q0 -227 238 -338q72 -20 114 -21h23q221 0 336 238q18 70 18 113v22q0 227 -242 338q-74 18 -116 19h-15q-219 0 -334 -236q-23 -68 -22 -119v-16zM328 1214v13q0 41 118 168q35 59 80 59h29q47 0 135 -129q66 -66 66 -98v-13 q-16 -72 -74 -71h-10q-47 0 -129 119h-4q-82 -119 -127 -119h-13q-71 16 -71 71z" />
<glyph unicode="&#x11e;" horiz-adv-x="1245" d="M23 719q0 358 319 596q199 121 383 121q229 0 412 -127q18 -25 18 -49v-5q0 -57 -76 -71q-12 0 -145 63q-86 33 -170 33h-62q-211 0 -403 -203q-127 -174 -127 -352v-14q0 -293 272 -480q141 -80 285 -79h14q141 0 281 75v344h-272q-72 12 -72 72v2q12 74 72 74h352 q55 0 67 -74v-418q0 -94 -45 -114q-193 -113 -374 -113h-23q-354 0 -594 330q-112 186 -112 389zM418 1710v25q16 72 71 71h13q53 0 84 -84q51 -59 121 -59q100 0 147 113q31 31 59 30h9q76 -12 75 -75v-5q0 -80 -155 -190q-76 -29 -131 -29h-9q-192 0 -284 203z" />
<glyph unicode="&#x11f;" horiz-adv-x="1138" d="M37 512q0 246 219 416q145 94 289 94q227 0 393 -191q117 -162 117 -296l-4 -127v-449q0 -123 -195 -274q-152 -98 -311 -99q-279 0 -461 250q-33 53 -33 74v10q0 51 68 66h10q49 0 84 -95q135 -168 332 -167q236 0 356 217l8 47v168q-170 -154 -354 -154h-29 q-205 0 -383 195q-106 151 -106 315zM180 506q0 -225 240 -338q72 -20 115 -21h20q221 0 336 238q18 70 18 113v22q0 227 -241 338q-74 18 -115 19h-14q-221 0 -336 -236q-23 -68 -23 -119v-16zM264 1339v25q16 72 72 72h12q53 0 84 -84q51 -59 121 -60q100 0 147 113 q31 31 60 31h8q76 -12 76 -76v-4q0 -82 -156 -193q-72 -27 -133 -26h-6q-193 -1 -285 202z" />
<glyph unicode="&#x120;" horiz-adv-x="1271" d="M27 719q0 358 319 596q199 121 383 121q229 0 412 -127q18 -25 18 -49v-5q0 -57 -76 -71q-12 0 -145 63q-86 33 -170 33h-61q-212 0 -406 -203q-125 -170 -125 -352v-14q0 -293 273 -480q141 -80 284 -79h15q141 0 280 75v344h-272q-72 12 -72 72v2q12 74 72 74h352 q55 0 68 -74v-418q0 -94 -46 -114q-193 -113 -374 -113h-23q-354 0 -594 330q-112 186 -112 389zM631 1677q0 77 86 111q8 4 33 4q92 0 116 -106v-21q0 -63 -82 -100q-12 -6 -34 -6h-2q-97 -1 -117 118z" />
<glyph unicode="&#x121;" horiz-adv-x="1148" d="M45 512q0 246 219 416q145 94 291 94q227 0 393 -191q115 -158 115 -296l-4 -127v-449q0 -125 -193 -274q-150 -98 -311 -99q-281 0 -463 250q-33 53 -33 74v10q0 51 68 66h10q51 0 86 -95q135 -168 332 -167q236 0 356 217l7 47v168q-170 -154 -353 -154h-30 q-203 0 -381 195q-109 155 -109 315zM190 506q0 -227 238 -338q72 -20 115 -21h22q219 0 334 238q18 70 19 113v22q0 227 -240 338q-74 18 -117 19h-14q-219 0 -334 -236q-23 -68 -23 -119v-16zM461 1290q0 77 86 111q12 6 33 6q90 0 114 -107v-20q0 -66 -82 -102 q-12 -6 -32 -7h-5q-94 0 -114 119z" />
<glyph unicode="&#x122;" horiz-adv-x="1275" d="M35 719q0 358 321 596q199 121 381 121q231 0 414 -127q18 -25 18 -49v-5q0 -57 -75 -71q-14 0 -148 63q-86 33 -170 33h-61q-211 0 -404 -203q-125 -170 -125 -352v-14q0 -293 273 -480q141 -80 282 -79h17q139 0 278 75v344h-272q-72 12 -72 72v2q12 74 72 74h352 q55 0 68 -74v-418q0 -94 -45 -114q-164 -98 -332 -111v-31q104 -68 104 -170q0 -145 -170 -188l-49 2h-53l-55 -2q-59 23 -60 59v15q12 61 64 61h121q66 0 65 53v2q0 41 -61 54q-41 20 -41 53v92q-307 31 -525 328q-112 186 -112 389z" />
<glyph unicode="&#x123;" horiz-adv-x="1183" d="M57 512q0 246 219 416q145 94 291 94q227 0 394 -191q115 -158 114 -296l-4 -127v-449q0 -125 -192 -274q-150 -98 -312 -99q-279 0 -461 250q-33 53 -32 74v10q0 51 65 66h13q49 0 84 -95q135 -168 331 -167q236 0 357 217l8 47v168q-170 -154 -354 -154h-29 q-205 0 -383 195q-109 155 -109 315zM203 506q0 -227 237 -338q72 -20 115 -21h23q221 0 335 238q18 70 19 113v22q0 227 -242 338q-74 18 -117 19h-14q-219 0 -334 -236q-23 -68 -22 -119v-16zM449 1397q0 133 143 256l45 16q27 -8 27 -33v-8q-59 -143 -60 -244 q0 -63 47 -139l4 -20q0 -63 -84 -80q-94 0 -122 252z" />
<glyph unicode="&#x124;" horiz-adv-x="1175" d="M41 76v1274q10 84 63 84h15q68 -15 67 -62v-598h713v588q12 72 68 72h12q68 -12 68 -68v-1303q0 -47 -72 -63h-4q-72 12 -72 72v561h-713v-565q0 -55 -69 -68h-4q-58 0 -72 76zM358 1595v13q0 41 119 168q35 59 80 59h29q49 0 137 -127q63 -63 63 -100v-13 q-16 -72 -71 -71h-13q-45 0 -129 121h-4q-84 -121 -127 -121h-12q-72 16 -72 71z" />
<glyph unicode="&#x125;" horiz-adv-x="1073" d="M35 68v1292q14 70 63 70h17q68 -16 67 -60v-461q143 125 310 125q252 0 403 -237q57 -106 57 -201v-528q0 -55 -71 -68h-4q-53 0 -72 68v505q0 207 -211 295q-49 14 -102 15q-209 0 -295 -224q-14 -45 -15 -157v-434q0 -55 -71 -68h-5q-53 0 -71 68zM317 1511v13 q0 37 121 168q35 59 80 59h29q47 0 135 -127q63 -63 63 -100v-13q-16 -72 -71 -71h-12q-43 0 -127 121h-5q-84 -121 -129 -121h-12q-72 16 -72 71z" />
<glyph unicode="&#x126;" horiz-adv-x="1302" d="M18 1114q18 76 95 76v4l24 -2v158q10 84 64 84h14q70 -16 70 -62v-182h710v172q12 72 70 72h10q68 -12 68 -68v-174l24 2q78 0 101 -80q0 -53 -84 -80l-41 2v-973q0 -47 -72 -63h-4q-72 12 -72 72v561h-710v-565q0 -55 -72 -68h-4q-57 0 -72 76v958h-28q-91 25 -91 80z M285 774h710v264h-710v-264z" />
<glyph unicode="&#x127;" horiz-adv-x="1329" d="M31 1210q12 76 71 76v4l41 -4h148v74q14 70 63 70h17q68 -16 67 -60v-84h424l37 4q57 0 76 -80q0 -53 -64 -80l-67 5h-406v-226q143 125 310 125q252 0 403 -237q57 -106 57 -201v-528q0 -55 -71 -68h-4q-53 0 -72 68v505q0 207 -211 295q-49 14 -102 15 q-209 0 -295 -224q-14 -45 -15 -157v-434q0 -55 -71 -68h-5q-53 0 -71 68v1067h-127l-66 -5q-67 25 -67 80z" />
<glyph unicode="&#x128;" horiz-adv-x="620" d="M39 1640v9q0 72 139 88l15 2q78 0 190 -72l33 -4l76 25h6q72 -12 71 -72v-4q0 -68 -123 -90l-38 -4q-78 0 -181 71l-30 4l-82 -22q-76 16 -76 69zM123 72v4q16 74 63 74h25v1146h-16q-63 0 -72 80v4q0 45 72 68l18 -2h141l17 2q76 -14 75 -76q-12 -76 -71 -76h-17v-1146 h23q49 0 65 -74v-4q-12 -72 -71 -72h-180q-72 13 -72 72z" />
<glyph unicode="&#x129;" horiz-adv-x="614" d="M39 1231v8q0 70 139 86l15 4q78 0 190 -72l33 -4l76 25h6q72 -12 71 -74v-4q0 -70 -123 -90l-38 -2q-78 0 -181 72l-30 4l-82 -25q-76 17 -76 72zM221 76v868q8 86 76 86q72 -18 72 -63v-899q0 -55 -72 -68h-4q-56 0 -72 76z" />
<glyph unicode="&#x12a;" horiz-adv-x="681" d="M23 1638q12 76 71 76v4l39 -4h402l34 4q53 0 76 -80q0 -55 -67 -79l-60 4h-364l-64 -4q-67 24 -67 79zM166 72v4q14 74 65 74h23v1146h-16q-61 0 -72 80v4q0 45 72 68l18 -2h143l15 2q76 -14 75 -76q-12 -76 -71 -76h-17v-1146h25q49 0 63 -74v-4q-12 -72 -71 -72h-180 q-72 13 -72 72z" />
<glyph unicode="&#x12b;" horiz-adv-x="743" d="M43 1233q12 76 74 76v4l39 -4h399l37 4q55 0 76 -80q0 -55 -68 -80l-59 4h-365l-63 -4q-70 25 -70 80zM274 76v868q9 86 74 86q74 -18 74 -63v-899q0 -55 -74 -68h-4q-54 0 -70 76z" />
<glyph unicode="&#x12c;" horiz-adv-x="645" d="M31 1737v22q16 74 71 74h13q53 0 84 -84q51 -61 118 -61q102 0 150 112q33 33 59 33h9q76 -12 75 -78v-4q0 -80 -155 -190q-76 -29 -133 -29h-9q-190 0 -282 205zM152 72v4q16 74 65 74h23v1146h-17q-63 0 -71 80v4q0 45 71 68l21 -2h141l14 2q76 -14 76 -76 q-12 -76 -72 -76h-16v-1146h25q47 0 63 -74v-4q-12 -72 -72 -72h-180q-71 13 -71 72z" />
<glyph unicode="&#x12d;" horiz-adv-x="645" d="M23 1325v25q16 72 71 71h12q53 0 84 -84q51 -59 119 -59q102 0 150 113q31 31 59 30h8q76 -12 76 -75v-5q0 -80 -156 -190q-76 -29 -133 -29h-8q-190 0 -282 203zM221 76v868q8 86 76 86q72 -18 72 -63v-899q0 -55 -72 -68h-4q-56 0 -72 76z" />
<glyph unicode="&#x12e;" horiz-adv-x="509" d="M59 72v4q14 74 66 74h22v1146h-16q-61 0 -72 80v4q0 45 72 68l21 -2h141l14 2q78 -16 78 -76q-12 -76 -74 -76h-14v-1146h22q49 0 66 -74v-4q-12 -72 -74 -72h-2v-66q0 -57 -80 -69q-25 -18 -24 -45q0 -53 65 -53h103l14 4q72 -16 72 -68v-6q0 -45 -58 -68l-73 4h-35 l-57 -4q-70 0 -144 92q-25 49 -24 84v27q0 98 104 156v4v8h-41q-72 13 -72 72z" />
<glyph unicode="&#x12f;" horiz-adv-x="464" d="M33 -158q0 98 104 156v4l-2 47q0 4 -3 12.5l-5 14.5v868q8 86 76 86q72 -18 71 -63v-899v-15v-6v-102q0 -57 -79 -70q-25 -18 -25 -45q0 -53 66 -53h102l14 4q72 -16 72 -68v-8q0 -43 -57 -65l-74 4h-37l-55 -4q-70 0 -144 92q-25 49 -24 84v26zM127 1210q16 76 76 76 q72 -18 71 -63v-23q0 -51 -77 -63q-52 -1 -70 73z" />
<glyph unicode="&#x130;" horiz-adv-x="460" d="M59 72v4q14 74 66 74h22v1146h-16q-61 0 -72 80v4q0 45 72 68l21 -2h141l14 2q78 -16 78 -76q-12 -76 -74 -76h-14v-1146h22q49 0 66 -74v-4q-12 -72 -74 -72h-180q-72 13 -72 72zM117 1677q0 77 86 111q8 4 33 4q90 0 114 -106v-21q0 -63 -82 -100q-12 -6 -32 -6h-5 q-94 -1 -114 118z" />
<glyph unicode="&#x131;" horiz-adv-x="512" d="M129 877v12q0 37 104 59l76 23h8q45 -8 45 -43v-879q-9 -49 -49 -49h-2q-49 9 -49 43v809q-72 -23 -90 -23q-31 1 -43 48z" />
<glyph unicode="&#x132;" horiz-adv-x="1433" d="M59 72v4q14 74 66 74h22v1146h-16q-61 0 -72 80v4q0 45 72 68l21 -2h141l14 2q78 -16 78 -76q-12 -76 -74 -76h-14v-1146h22q49 0 66 -74v-4q-12 -72 -74 -72h-180q-72 13 -72 72zM444 453q16 72 66 71h14q72 0 72 -118q6 -80 98 -183q94 -72 199 -71q212 0 289 221 q10 33 10 80v921q12 70 68 70h12q55 0 67 -74v-921q0 -240 -223 -383q-104 -61 -217 -62h-18q-217 0 -369 213q-68 115 -68 236z" />
<glyph unicode="&#x133;" horiz-adv-x="759" d="M80 76v868q10 86 76 86q72 -18 71 -63v-899q0 -55 -71 -68h-4q-56 0 -72 76zM80 1210q16 76 76 76q72 -18 71 -63v-23q0 -51 -80 -63q-49 -1 -67 73zM115 -328q0 55 80 68q209 0 276 211l8 110v895q0 57 76 70q70 -14 70 -70v-927q0 -276 -263 -404q-90 -33 -159 -33 l-4 5h-4l-2 -5h-5q-61 0 -73 80zM479 1192v22q0 45 72 64q74 -16 74 -76q0 -61 -78 -74q-68 19 -68 64z" />
<glyph unicode="&#x134;" horiz-adv-x="1165" d="M61 453q16 72 66 71h14q72 0 72 -118q6 -80 98 -183q94 -72 199 -71q212 0 289 221q10 33 10 80v921q12 70 68 70h12q55 0 67 -74v-921q0 -240 -223 -383q-104 -61 -217 -62h-18q-217 0 -369 213q-68 115 -68 236zM662 1571v10q0 41 118 168q37 61 80 61h29 q45 0 135 -129q66 -66 66 -100v-10q-16 -74 -72 -74h-12q-45 0 -129 121h-5q-84 -121 -127 -121h-12q-71 17 -71 74z" />
<glyph unicode="&#x135;" horiz-adv-x="808" d="M61 -328q0 55 80 68q211 0 279 211l6 110v895q0 57 76 70q70 -14 69 -70v-927q0 -276 -262 -404q-90 -33 -159 -33l-5 5h-4l-2 -5h-4q-62 0 -74 80zM279 1165v13q0 41 118 168q35 59 80 59h29q47 0 135 -127q66 -66 66 -100v-13q-16 -72 -72 -71h-12q-47 0 -129 118h-5 q-82 -119 -127 -118h-12q-71 16 -71 71z" />
<glyph unicode="&#x136;" horiz-adv-x="1103" d="M45 76v1284q15 74 74 74h2q72 -12 72 -68v-653q698 698 706 698l27 4h8q68 -12 67 -67v-13q0 -37 -79 -100l-465 -469l532 -660l4 -22v-12q0 -55 -71 -68h-4q-45 0 -125 117l-445 541l-155 -160v-434q0 -55 -72 -68h-2q-58 0 -74 76zM301 -246q12 63 64 64h120 q68 0 68 53v2q0 39 -64 51q-41 20 -40 53q0 59 40 74q45 16 95 -10q104 -68 104 -170q0 -145 -170 -188l-49 2h-51l-58 -2q-59 23 -59 59v12z" />
<glyph unicode="&#x137;" horiz-adv-x="1024" d="M59 68v1296q16 72 66 72h14q70 -16 70 -62v-745q516 340 622 403h21q59 0 72 -78q0 -45 -121 -110q-291 -197 -307 -201v-4l424 -537l4 -22v-4q-12 -72 -72 -72h-8q-45 0 -133 127l-340 424h-4l-158 -100v-387q0 -55 -74 -68h-4q-54 0 -72 68zM266 -236q12 63 64 64h121 q66 0 65 51v2q0 41 -61 53q-41 20 -41 54q0 59 41 73q43 14 94 -12q104 -68 104 -170q0 -145 -170 -188l-49 4h-51l-57 -4q-59 23 -60 59v14z" />
<glyph unicode="&#x138;" horiz-adv-x="1042" d="M74 68v927q12 66 65 78h23q57 -16 59 -80v-364q500 330 625 403h18q59 0 72 -78q0 -45 -121 -110q-291 -197 -307 -201v-4l424 -537l4 -22v-4q-12 -72 -72 -72h-8q-43 0 -131 127l-342 424h-2l-160 -100v-387q0 -55 -71 -68h-5q-53 0 -71 68z" />
<glyph unicode="&#x139;" horiz-adv-x="946" d="M31 76v1274q10 84 63 84h17q68 -15 67 -62v-1225h617q59 0 71 -79q-23 -68 -71 -68h-693q-57 0 -71 76zM203 1520v16q0 35 139 160q113 129 156 129q68 0 80 -88q0 -41 -185 -205q-68 -84 -106 -84h-13q-71 17 -71 72z" />
<glyph unicode="&#x13a;" horiz-adv-x="464" d="M16 1534v14q0 35 140 160q115 129 155 129q68 0 80 -88q0 -43 -182 -205q-68 -84 -109 -84h-12q-72 17 -72 74zM78 76v1270q8 82 63 81h17q68 -15 67 -61v-1219h78q49 0 66 -71v-4q-12 -72 -72 -72h-147q-56 0 -72 76z" />
<glyph unicode="&#x13b;" horiz-adv-x="927" d="M23 76v1274q10 84 63 84h14q70 -16 70 -62v-1225h616q59 0 72 -79q-23 -68 -72 -68h-692q-57 0 -71 76zM262 -342q12 63 64 63h120q66 0 66 54v2q0 41 -61 53q-43 23 -43 51q0 59 41 74q45 16 96 -10q102 -66 102 -170q0 -145 -170 -189l-49 2h-51l-55 -2q-59 23 -60 60 v12z" />
<glyph unicode="&#x13c;" horiz-adv-x="514" d="M47 -344q12 61 64 61h120q66 0 66 54v2q0 41 -61 53q-43 23 -43 51q0 58 43 74q45 16 94 -10q102 -66 102 -170q0 -145 -170 -189l-49 2h-51l-56 -2q-59 23 -59 60v14zM127 76v1270q8 82 63 81h17q68 -15 67 -61v-1219h78q49 0 66 -71v-4q-12 -72 -74 -72h-145 q-56 0 -72 76z" />
<glyph unicode="&#x13d;" horiz-adv-x="972" d="M66 76v1274q10 84 63 84h16q68 -15 68 -62v-1225h616q59 0 72 -79q-20 -68 -72 -68h-692q-57 0 -71 76zM643 1079v13q59 139 59 235v12q0 66 -47 146v18q16 74 64 74h29q82 0 110 -238v-18q0 -131 -143 -250q-27 -14 -43 -14q-21 6 -29 22z" />
<glyph unicode="&#x13e;" horiz-adv-x="557" d="M74 76v1270q8 82 63 81h17q68 -15 67 -61v-1219h78q49 0 66 -71v-4q-12 -72 -72 -72h-148q-55 0 -71 76zM297 1071v12q59 139 59 236v12q0 61 -49 144v20q16 72 66 72h26q86 0 113 -236v-20q0 -129 -143 -248q-29 -16 -45 -16q-17 6 -27 24z" />
<glyph unicode="&#x13f;" horiz-adv-x="1003" d="M66 76v1274q10 84 63 84h16q68 -15 68 -62v-1225h616q59 0 72 -79q-20 -68 -72 -68h-692q-57 0 -71 76zM516 754q0 74 86 108q12 6 33 6q92 0 117 -106v-21q0 -66 -82 -102q-8 -4 -35 -4h-2q-97 0 -117 119z" />
<glyph unicode="&#x140;" horiz-adv-x="663" d="M66 76v1270q8 82 63 81h14q70 -16 70 -61v-1219h78q47 0 63 -71v-4q-12 -72 -71 -72h-146q-55 0 -71 76zM348 719q0 76 86 108q12 6 35 7q90 0 115 -107v-20q0 -66 -82 -103q-12 -6 -33 -6h-4q-94 0 -117 121z" />
<glyph unicode="&#x141;" horiz-adv-x="1077" d="M37 551q0 57 147 145v654q10 84 66 84h14q68 -15 68 -62v-567q236 174 260 174h20q49 0 68 -72v-12q0 -49 -121 -121l-227 -164v-463h616q61 0 74 -79q-22 -68 -74 -68h-692q-57 0 -72 76v430q-46 -31 -49 -31l-18 -4q-80 15 -80 80z" />
<glyph unicode="&#x142;" horiz-adv-x="694" d="M16 475q0 59 154 150q12 10 25.5 19t27.5 20v682q8 82 64 81h14q70 -16 70 -61v-594q182 131 202 131h21q49 0 68 -72v-12q0 -47 -121 -119l-170 -125v-428h78q47 0 63 -71v-4q-12 -72 -72 -72h-145q-55 0 -72 76v393q-100 -70 -106 -70l-21 -4q-80 15 -80 80z" />
<glyph unicode="&#x143;" horiz-adv-x="1284" d="M35 80v1268q10 84 63 84h17q47 0 82 -76q90 -104 821 -1051q8 0 8 -10l2 -4h4v1073q12 68 70 68h10q55 0 68 -72v-1284q0 -63 -78 -76q-45 0 -133 131l-787 1006v-1065q0 -55 -71 -68h-5q-55 0 -71 76zM528 1454v16q0 35 140 160q113 127 155 127q68 0 80 -88 q0 -41 -182 -203q-68 -84 -109 -84h-12q-72 17 -72 72z" />
<glyph unicode="&#x144;" horiz-adv-x="1095" d="M31 74v844q10 84 73 83q70 -18 70 -61v-80q160 141 346 141q207 0 367 -172q117 -145 117 -303v-465q0 -45 -68 -61h-4q-72 12 -72 70v409q0 276 -235 363q-55 14 -105 14h-10q-201 0 -307 -205q-29 -68 -29 -200v-385q0 -53 -70 -66h-4q-55 0 -69 74zM352 1221v16 q0 35 140 160q115 129 155 129q68 0 80 -88q0 -43 -182 -205q-68 -84 -109 -84h-12q-72 17 -72 72z" />
<glyph unicode="&#x145;" horiz-adv-x="1306" d="M66 80v1268q10 84 63 84h16q47 0 82 -76q90 -104 822 -1051q8 0 8 -10l4 -4h4v1073q12 68 68 68h10q55 0 67 -72v-1284q0 -63 -77 -76q-45 0 -134 131l-786 1006v-1065q0 -55 -72 -68h-4q-55 0 -71 76zM451 -236q12 63 63 64h121q66 0 65 51v2q0 41 -61 53q-41 20 -41 54 q0 59 41 73q43 14 94 -12q104 -68 105 -170q0 -145 -170 -188l-50 4h-53l-55 -4q-59 23 -59 59v14z" />
<glyph unicode="&#x146;" horiz-adv-x="1138" d="M35 74v844q10 84 74 83q70 -18 69 -61v-80q160 141 346 141q207 0 367 -172q117 -145 117 -303v-465q0 -45 -70 -61h-2q-72 12 -72 70v409q0 276 -235 363q-55 14 -105 14h-10q-201 0 -307 -205q-29 -68 -29 -200v-385q0 -53 -69 -66h-5q-55 0 -69 74zM309 -240 q12 63 64 64h121q66 0 65 51v2q0 41 -61 53q-41 20 -41 54q0 59 41 73q43 14 94 -12q104 -68 104 -170q0 -145 -170 -188l-49 4h-51l-57 -4q-59 23 -60 59v14z" />
<glyph unicode="&#x147;" horiz-adv-x="1320" d="M53 80v1268q10 84 64 84h14q49 0 84 -76q90 -104 821 -1051q8 0 8 -10l3 -4h4v1073q12 68 67 68h12q55 0 68 -72v-1284q0 -63 -80 -76q-43 0 -131 131l-786 1006v-1065q0 -55 -74 -68h-2q-56 0 -72 76zM426 1606v12q16 72 72 72h12q47 0 129 -119h2q82 119 129 119h12 q72 -16 72 -72v-12q0 -33 -96 -140q-61 -88 -105 -88h-26q-47 0 -133 123q-68 68 -68 105z" />
<glyph unicode="&#x148;" horiz-adv-x="1112" d="M41 74v844q10 84 72 83q70 -18 69 -61v-80q160 141 348 141q207 0 367 -172q117 -145 117 -303v-465q0 -45 -70 -61h-4q-70 12 -70 70v409q0 276 -237 363q-55 14 -103 14h-12q-199 0 -305 -205q-31 -72 -31 -200v-385q0 -53 -69 -66h-2q-54 0 -70 74zM334 1356v10 q16 74 72 74h12q45 0 129 -121h4q84 121 127 121h12q72 -16 72 -74v-10q0 -35 -96 -142q-61 -88 -105 -88h-26q-45 0 -134 125q-67 68 -67 105z" />
<glyph unicode="&#x149;" horiz-adv-x="1425" d="M53 780v13q59 139 60 235v12q0 63 -47 144v20q16 72 63 72h29q84 0 110 -236v-20q0 -129 -143 -248q-29 -16 -43 -16q-21 6 -29 24zM291 74v844q10 84 74 83q70 -18 69 -61v-80q160 141 346 141q207 0 367 -172q117 -145 117 -303v-465q0 -45 -70 -61h-2q-72 12 -72 70 v409q0 276 -235 363q-55 14 -105 14h-10q-201 0 -307 -205q-29 -68 -29 -200v-385q0 -53 -69 -66h-5q-53 0 -69 74z" />
<glyph unicode="&#x14a;" horiz-adv-x="1267" d="M41 76v1270q10 84 63 84h15q68 -15 67 -62v-127q193 193 426 193q229 0 416 -183q137 -158 152 -301l6 -49l-2 -117v-206l2 -99q-16 -133 -90 -237q-150 -184 -371 -185q-158 0 -266 95l-8 32v13q12 68 67 67h8l125 -49l74 -8h8q172 0 268 166q37 55 37 215v229 q0 326 -274 438q-86 27 -135 27h-23q-237 0 -375 -233q-45 -82 -45 -252v-729q0 -55 -71 -68h-2q-56 0 -72 76z" />
<glyph unicode="&#x14b;" horiz-adv-x="1138" d="M41 74v844q10 84 72 83q70 -18 69 -61v-80q160 141 348 141q207 0 367 -172q117 -145 117 -303v-465q0 -2 -1 -6t-1 -6q-4 -213 -228 -299l-88 -14q-72 14 -71 61v23q0 55 82 61q111 0 159 137q0 18 4 43v418q0 276 -237 363q-55 14 -103 14h-12q-199 0 -305 -205 q-31 -72 -31 -200v-385q0 -53 -69 -66h-2q-54 0 -70 74z" />
<glyph unicode="&#x14c;" horiz-adv-x="1579" d="M31 721q0 342 303 577q199 137 416 138q362 0 606 -336q111 -190 110 -385q0 -362 -325 -598q-184 -117 -385 -117h-15q-371 0 -604 344q-106 174 -106 377zM178 711q0 -274 242 -461q152 -102 321 -103h19q268 0 452 238q106 152 107 334q0 309 -283 489 q-141 80 -286 80q-283 0 -469 -246q-103 -149 -103 -331zM270 1634q18 70 70 70h844q70 -12 69 -70v-12q-12 -70 -65 -70h-848q-62 0 -70 82z" />
<glyph unicode="&#x14d;" horiz-adv-x="1187" d="M43 510q0 246 219 416q141 92 291 92q199 0 356 -150q154 -164 154 -358q0 -287 -272 -451q-119 -59 -228 -59h-28q-205 0 -383 193q-109 155 -109 317zM63 1255q18 70 70 70h844q70 -12 70 -70v-12q-12 -70 -66 -69h-848q-62 -1 -70 81zM193 502q0 -205 196 -316 q70 -37 154 -36h20q213 0 324 219q27 74 26 133v18q0 170 -155 287q-88 61 -209 61q-230 0 -338 -239q-18 -59 -18 -109v-18z" />
<glyph unicode="&#x14e;" horiz-adv-x="1562" d="M41 721q0 344 301 577q199 137 416 138q365 0 608 -336q109 -186 109 -385q0 -362 -324 -598q-184 -117 -385 -117h-16q-371 0 -605 344q-104 170 -104 377zM186 711q0 -274 242 -461q152 -102 322 -103h18q270 0 455 238q104 150 104 334q0 309 -283 489 q-141 80 -286 80q-283 0 -469 -246q-103 -149 -103 -331zM485 1741v22q16 72 72 72h12q53 0 84 -84q51 -59 119 -59q102 0 150 112q31 31 59 31h8q76 -12 76 -76v-4q0 -80 -156 -190q-76 -29 -133 -29h-8q-191 0 -283 205z" />
<glyph unicode="&#x14f;" horiz-adv-x="1126" d="M41 510q0 248 217 416q141 92 291 92q199 0 356 -150q154 -164 154 -358q0 -287 -273 -451q-119 -59 -227 -59h-29q-205 0 -383 193q-106 151 -106 317zM188 502q0 -205 197 -316q70 -37 154 -36h20q213 0 324 219q27 74 26 133v18q0 170 -155 287q-88 61 -209 61 q-230 0 -338 -239q-18 -59 -19 -109v-18zM268 1339v25q16 72 74 72h10q53 0 84 -84q51 -59 121 -60q100 0 148 113q31 31 61 31h6q78 -12 78 -76v-4q0 -82 -158 -193q-72 -27 -131 -26h-8q-193 -1 -285 202z" />
<glyph unicode="&#x150;" horiz-adv-x="1579" d="M31 721q0 342 303 577q199 137 416 138q362 0 606 -336q111 -190 110 -385q0 -362 -325 -598q-184 -117 -385 -117h-15q-371 0 -604 344q-106 174 -106 377zM178 711q0 -274 242 -461q152 -102 321 -103h19q268 0 452 238q106 152 107 334q0 309 -283 489 q-141 80 -286 80q-283 0 -469 -246q-103 -149 -103 -331zM391 1536v6q102 260 127 285q29 16 49 16h4q76 -12 76 -71v-21q0 -23 -168 -240q-18 -20 -37 -20h-8q-31 0 -43 45zM635 1524q0 10 113 270q34 37 67 37q80 -15 80 -80q0 -31 -109 -168q-68 -104 -96 -104h-10 q-33 0 -45 45z" />
<glyph unicode="&#x151;" horiz-adv-x="1134" d="M35 510q0 246 219 416q141 92 291 92q199 0 356 -150q152 -162 152 -358q0 -289 -271 -451q-119 -59 -227 -59h-31q-203 0 -381 193q-108 155 -108 317zM184 502q0 -205 197 -316q70 -37 151 -36h23q213 0 324 219q25 68 24 133v18q0 170 -155 287q-88 61 -207 61 q-230 0 -338 -239q-18 -59 -19 -109v-18zM254 1161v8q100 254 129 283q29 16 47 16h4q76 -12 76 -71v-21q0 -23 -168 -239q-18 -20 -37 -21h-6q-33 0 -45 45zM498 1149q0 12 112 272q33 35 68 35q80 -15 80 -80q0 -31 -109 -168q-66 -102 -94 -102h-12q-33 0 -45 43z" />
<glyph unicode="&#x152;" horiz-adv-x="2156" d="M84 721q0 342 248 577q162 137 340 138q279 0 469 -291v221q12 72 71 72v4l21 -4h743l15 4q63 0 75 -82q-16 -70 -81 -70h-697v-512h457l53 4q49 0 68 -75q0 -51 -62 -76l-75 4h-441v-488h715q51 0 63 -79q-23 -68 -67 -68h-787q-72 12 -71 72v217q-58 -92 -148 -172 q-150 -117 -315 -117h-12q-305 0 -496 344q-86 176 -86 377zM205 711q0 -274 198 -461q125 -102 263 -103h16q219 0 371 238q86 154 86 334q0 309 -232 489q-113 80 -235 80q-233 0 -383 -246q-84 -149 -84 -331z" />
<glyph unicode="&#x153;" horiz-adv-x="2023" d="M43 514q0 246 219 416q145 94 291 94q199 0 356 -150q47 -51 82 -106q63 100 189 178q131 63 237 64q291 0 451 -277q55 -108 55 -233v-19q-12 -74 -70 -73h-774q43 -145 189 -224q80 -33 157 -32q84 0 195 55h20q66 -12 66 -66v-12q0 -92 -262 -125h-27q-266 0 -428 248 q-70 -111 -198 -189q-119 -59 -228 -59h-28q-205 0 -383 195q-109 155 -109 315zM193 508q0 -207 196 -318q70 -37 154 -36h20q213 0 324 219q27 74 26 135v16q0 170 -155 287q-90 63 -209 63q-229 0 -338 -241q-18 -59 -18 -109v-16zM1069 551h705q0 76 -88 194 q-119 113 -238 113h-41q-178 0 -291 -172q-37 -63 -47 -135z" />
<glyph unicode="&#x154;" horiz-adv-x="985" d="M35 76v1276q10 84 63 84h316q201 0 329 -213q41 -86 41 -170v-17q0 -199 -192 -323l-37 -21q342 -590 342 -606v-18q0 -55 -72 -68h-4q-55 0 -112 129l-312 530h-215v-591q0 -55 -71 -68h-5q-57 0 -71 76zM182 807h215q180 0 236 192l4 31v31q0 141 -160 215 q-43 14 -139 14h-156v-483zM256 1554v17q0 35 139 160q113 129 156 129q68 0 80 -88q0 -43 -185 -205q-68 -84 -106 -84h-12q-72 16 -72 71z" />
<glyph unicode="&#x155;" horiz-adv-x="927" d="M68 76v868q10 86 75 86q72 -18 72 -63v-82q164 145 352 145q101 0 215 -49q31 -31 31 -59v-4q-12 -70 -72 -70h-4q-100 33 -153 33h-23q-219 0 -323 -230q-23 -63 -23 -139v-444q0 -55 -72 -68h-4q-55 0 -71 76zM276 1202v17q0 34 142 159q115 129 155 129q68 0 80 -88 q0 -43 -184 -205q-68 -84 -109 -84h-12q-72 17 -72 72z" />
<glyph unicode="&#x156;" horiz-adv-x="993" d="M41 76v1276q10 84 63 84h316q199 0 328 -213q41 -86 40 -170v-17q0 -199 -192 -323l-37 -21q344 -594 344 -606v-18q0 -55 -72 -68h-4q-53 0 -112 129l-312 530h-215v-591q0 -55 -71 -68h-4q-58 0 -72 76zM188 807h215q180 0 236 192l2 31v31q0 141 -158 215 q-43 14 -141 14h-154v-483zM262 -205q12 63 64 64h120q66 0 66 53v2q0 39 -61 51q-43 23 -43 53q0 59 41 74q45 16 96 -10q102 -66 102 -170q0 -145 -170 -188l-49 2h-51l-55 -2q-59 23 -60 59v12z" />
<glyph unicode="&#x157;" horiz-adv-x="851" d="M20 76v868q9 86 74 86q74 -18 74 -63v-82q164 145 352 145q101 0 215 -49q31 -31 31 -59v-4q-12 -70 -72 -70h-4q-100 33 -155 33h-23q-219 0 -324 -230q-20 -59 -20 -139v-444q0 -55 -74 -68h-4q-54 0 -70 76zM98 -209q12 63 64 64h121q66 0 65 51v4q0 39 -61 51 q-41 20 -41 53q0 59 41 74q43 14 94 -12q104 -68 104 -170q0 -145 -170 -189l-49 4h-53l-55 -4q-59 23 -60 60v14z" />
<glyph unicode="&#x158;" horiz-adv-x="1001" d="M35 76v1276q10 84 63 84h316q201 0 329 -213q41 -86 41 -170v-17q0 -199 -192 -323l-37 -21q342 -590 342 -606v-18q0 -55 -72 -68h-4q-55 0 -112 129l-312 530h-215v-591q0 -55 -71 -68h-5q-57 0 -71 76zM143 1747v12q16 72 72 72h12q45 0 129 -121h4q84 121 127 121h13 q72 -16 71 -72v-12q0 -33 -96 -139q-61 -88 -102 -88h-29q-45 0 -131 122q-70 70 -70 105zM182 807h215q180 0 236 192l4 31v31q0 141 -160 215q-43 14 -139 14h-156v-483z" />
<glyph unicode="&#x159;" horiz-adv-x="884" d="M39 76v868q9 86 74 86q72 -18 71 -63v-82q164 145 355 145q101 0 215 -49q29 -29 28 -59v-4q-12 -70 -69 -70h-4q-100 33 -156 33h-23q-219 0 -323 -230q-23 -63 -23 -139v-444q0 -55 -71 -68h-4q-54 0 -70 76zM188 1348v12q16 72 72 72h12q45 0 129 -121h5 q84 121 126 121h13q72 -16 71 -72v-12q0 -35 -96 -142q-61 -88 -102 -88h-29q-45 0 -133 125q-68 68 -68 105z" />
<glyph unicode="&#x15a;" horiz-adv-x="927" d="M61 217q12 74 74 74q37 0 103 -80q96 -66 172 -66h34q152 0 244 172q16 59 17 84v37q0 151 -173 246l-194 53q-219 127 -219 330v27q0 200 215 313q80 31 147 31q188 0 312 -168l4 -17v-22q0 -49 -74 -62q-29 0 -102 80q-63 43 -127 43h-23q-126 0 -190 -135 q-16 -33 -17 -63v-31q0 -145 176 -211q123 0 273 -119q141 -143 141 -313q0 -209 -180 -344q-109 -76 -246 -76q-217 0 -358 186zM291 1559v16q0 35 139 160q115 129 158 129q68 0 80 -88q0 -43 -185 -205q-68 -84 -108 -84h-13q-71 17 -71 72z" />
<glyph unicode="&#x15b;" horiz-adv-x="978" d="M59 688q0 141 203 270q113 59 223 60q256 0 404 -234l4 -28v-4q0 -57 -76 -70q-47 0 -98 84q-102 100 -234 100q-172 0 -270 -164l-2 -18q0 -49 111 -59q442 -109 464 -117q109 -72 109 -178v-4q0 -154 -227 -283q-98 -43 -207 -43q-225 0 -381 211q-14 20 -14 41v22 q0 55 82 64q35 0 100 -94q98 -92 227 -92q156 0 260 147l6 23v4q0 49 -65 55q-496 111 -526 137q-93 72 -93 170zM287 1141v14q0 37 139 162q113 127 156 127q68 0 80 -88q0 -41 -185 -205q-68 -84 -106 -84h-13q-71 17 -71 74z" />
<glyph unicode="&#x15c;" horiz-adv-x="884" d="M41 217q12 74 72 74q39 0 102 -80q96 -66 172 -66h35q154 0 246 172q14 51 14 84v37q0 151 -172 246l-195 53q-219 127 -219 330v27q0 200 215 313q80 31 150 31q186 0 309 -168l4 -17v-22q0 -49 -74 -62q-29 0 -102 80q-66 43 -127 43h-22q-126 0 -191 -135 q-14 -29 -14 -63v-31q0 -147 174 -211q123 0 272 -119q141 -143 141 -313q0 -209 -180 -344q-109 -76 -243 -76q-219 0 -361 186zM236 1565v12q0 41 118 168q35 59 80 59h29q47 0 135 -127q66 -66 66 -100v-12q-16 -72 -72 -72h-12q-45 0 -129 121h-5q-84 -121 -127 -121 h-12q-71 17 -71 72z" />
<glyph unicode="&#x15d;" horiz-adv-x="968" d="M59 688q0 141 203 270q113 59 223 60q256 0 404 -234l4 -28v-4q0 -57 -76 -70q-47 0 -98 84q-102 100 -234 100q-172 0 -270 -164l-2 -18q0 -49 111 -59q442 -109 464 -117q109 -72 109 -178v-4q0 -154 -227 -283q-98 -43 -207 -43q-225 0 -381 211q-14 20 -14 41v22 q0 55 82 64q35 0 100 -94q98 -92 227 -92q156 0 260 147l6 23v4q0 49 -65 55q-496 111 -526 137q-93 72 -93 170zM274 1151v12q0 41 119 168q35 59 80 60h29q49 0 137 -127q63 -63 63 -101v-12q-16 -72 -71 -72h-13q-47 0 -129 119h-4q-82 -119 -127 -119h-12q-72 17 -72 72 z" />
<glyph unicode="&#x15e;" horiz-adv-x="901" d="M41 217q12 74 72 74q39 0 102 -80q96 -66 172 -66h35q154 0 246 172q14 51 14 84v37q0 151 -172 246l-195 53q-219 127 -219 330v27q0 200 215 313q80 31 150 31q186 0 309 -168l4 -17v-22q0 -49 -74 -62q-29 0 -102 80q-66 43 -127 43h-22q-126 0 -191 -135 q-14 -29 -14 -63v-31q0 -147 174 -211q123 0 272 -119q141 -143 141 -313q0 -209 -180 -344q-74 -49 -155 -68v-37q102 -66 102 -170q0 -145 -170 -188l-47 2h-53l-56 -2q-59 23 -59 59v15q12 61 63 61h121q66 0 66 53v2q0 41 -62 54q-43 20 -43 53v92q-186 18 -311 184z " />
<glyph unicode="&#x15f;" horiz-adv-x="976" d="M63 688q0 141 203 270q113 59 223 60q256 0 404 -234l4 -28v-4q0 -57 -76 -70q-47 0 -98 84q-102 100 -234 100q-172 0 -270 -164l-4 -18q0 -49 113 -59q442 -109 465 -117q106 -70 106 -178v-4q0 -156 -225 -283q-59 -25 -121 -37v-45q104 -68 104 -170 q0 -143 -170 -186l-49 2h-53l-55 -2q-59 23 -60 57v14q12 63 64 64h121q66 0 65 51v4q0 39 -61 51q-41 20 -41 54v102q-194 22 -332 209q-14 20 -14 41v22q0 55 82 64q35 0 100 -94q98 -92 227 -92q156 0 260 147l7 23v4q0 49 -66 55q-496 111 -526 137q-93 72 -93 170z" />
<glyph unicode="&#x160;" horiz-adv-x="923" d="M35 217q12 74 74 74q39 0 102 -80q96 -66 172 -66h35q152 0 244 172q16 59 16 84v37q0 151 -172 246l-197 53q-217 125 -217 330v27q0 201 213 313q80 31 150 31q188 0 311 -168l2 -17v-22q0 -49 -72 -62q-29 0 -102 80q-66 43 -127 43h-23q-126 0 -190 -135 q-16 -33 -16 -63v-31q0 -145 176 -211q121 0 270 -119q141 -143 141 -313q0 -209 -180 -344q-109 -76 -244 -76q-217 0 -358 186zM238 1739v10q16 74 71 74h13q43 0 127 -121h4q84 121 129 121h12q72 -16 72 -74v-10q0 -35 -97 -142q-61 -88 -104 -88h-29q-43 0 -131 125 q-67 68 -67 105z" />
<glyph unicode="&#x161;" horiz-adv-x="976" d="M51 688q0 141 203 270q113 59 221 60q258 0 406 -234l2 -28v-4q0 -57 -74 -70q-49 0 -100 84q-102 100 -234 100q-170 0 -268 -164l-4 -18q0 -49 110 -59q449 -111 467 -117q106 -70 107 -178v-4q0 -156 -225 -283q-98 -43 -207 -43q-225 0 -381 211q-16 23 -17 41v22 q0 55 82 64q35 0 101 -94q98 -92 229 -92q154 0 258 147l8 23v4q0 49 -65 55q-496 111 -527 137q-92 72 -92 170zM268 1360v12q16 72 72 72h12q43 0 127 -121h4q84 121 129 121h13q72 -16 71 -72v-12q0 -33 -96 -139q-61 -88 -104 -88h-27q-47 0 -133 122q-68 68 -68 105z " />
<glyph unicode="&#x162;" horiz-adv-x="1218" d="M43 1364q16 72 66 72h931q70 -12 70 -68v-14q0 -55 -84 -66h-377v-1220q0 -55 -71 -68h-3q-57 0 -71 76v1212h-383q-78 17 -78 76zM457 -367q59 84 59 144v8q0 39 -47 86v12q14 43 63 43h29q86 0 113 -141v-12q0 -80 -146 -152q-25 -8 -43 -8q-20 4 -28 14v6z" />
<glyph unicode="&#x163;" horiz-adv-x="729" d="M35 932q12 70 65 69v5l37 -5h92v308q10 82 64 82h12q68 -16 68 -60v-330h149l33 5q51 0 70 -74q0 -51 -62 -74l-55 4h-135v-538q0 -143 92 -174l84 -7h41q47 0 61 -69v-4q-12 -70 -69 -70h-78q-174 0 -260 190q-14 43 -15 111v561h-73l-60 -4q-61 22 -61 74zM315 -340 q61 86 62 143v7q0 39 -49 88v12q16 43 63 43h29q86 0 112 -143v-13q0 -78 -145 -149q-31 -10 -43 -10q-18 4 -29 16v6z" />
<glyph unicode="&#x164;" horiz-adv-x="1222" d="M53 1364q16 72 64 72h934q68 -12 67 -68v-14q0 -55 -84 -66h-375v-1220q0 -55 -71 -68h-4q-57 0 -72 76v1212h-383q-76 15 -76 76zM375 1751v12q16 72 71 72h13q45 0 127 -119h4q82 119 129 119h10q74 -16 74 -72v-12q0 -33 -96 -139q-61 -88 -105 -88h-29 q-43 0 -131 125q-67 67 -67 102z" />
<glyph unicode="&#x165;" horiz-adv-x="755" d="M61 932q12 70 66 69v5l39 -5h90v308q10 82 63 82h15q66 -16 65 -60v-330h152l33 5q49 0 67 -74q0 -51 -61 -74l-55 4h-136v-538q0 -143 93 -174l83 -7h41q47 0 62 -69v-4q-12 -70 -70 -70h-78q-174 0 -260 190q-14 43 -14 111v561h-74l-57 -4q-64 23 -64 74zM123 1716v13 q16 72 72 71h12q45 0 129 -121h4q84 121 127 121h12q72 -16 72 -71v-13q0 -33 -96 -139q-61 -88 -105 -88h-26q-47 0 -134 123q-67 67 -67 104z" />
<glyph unicode="&#x166;" horiz-adv-x="1196" d="M47 1364q16 72 66 72h931q68 -12 68 -68v-14q0 -57 -82 -66h-377v-495h269l36 4q57 0 76 -80q0 -53 -63 -80l-70 4h-248v-573q0 -55 -71 -68h-2q-57 0 -72 76v565h-287l-63 -4q-68 25 -68 80q12 76 72 76v4l41 -4h305v495h-383q-78 17 -78 76z" />
<glyph unicode="&#x167;" horiz-adv-x="747" d="M47 932q12 70 68 69v5l37 -5h90v308q10 82 63 82h14q66 -16 66 -60v-330h152l32 5q51 0 70 -74q0 -51 -64 -74l-55 4h-135v-244h147l35 5q53 0 72 -80q0 -55 -66 -80l-55 4h-133v-143q0 -143 92 -174l84 -7h41q47 0 62 -69v-4q-12 -70 -70 -70h-78q-174 0 -260 190 q-14 43 -14 111v166h-66l-59 -4q-66 25 -66 80q12 76 70 75v5l37 -5h84v244h-72l-59 -4q-64 23 -64 74z" />
<glyph unicode="&#x168;" horiz-adv-x="1218" d="M66 537v813q10 84 63 84h16q68 -15 68 -62v-805q0 -260 147 -348q94 -72 209 -72q221 0 332 228q25 80 25 147v840q12 72 67 72h11q68 -12 67 -68v-883q0 -224 -215 -393q-133 -90 -276 -90h-25q-233 0 -410 231q-79 124 -79 306zM317 1620v10q0 55 82 74q23 10 62 10h18 q74 0 162 -61l31 -8h16l76 22q74 -15 74 -74q0 -74 -142 -92h-24q-72 0 -162 64l-31 6h-18l-70 -19h-6q-68 13 -68 68z" />
<glyph unicode="&#x169;" horiz-adv-x="1130" d="M43 518v400q8 84 74 83q70 -18 69 -63v-389q0 -248 144 -336q92 -70 200 -70q213 0 322 219q23 74 22 142v424q14 74 72 73q70 -18 70 -69v-871q0 -45 -70 -61h-4q-68 12 -68 70v69h-4q-156 -139 -329 -139h-25q-227 0 -395 223q-78 121 -78 295zM279 1219v10q0 55 79 74 q27 12 64 12h18q72 0 162 -64l29 -8h18l74 23q74 -15 74 -74q0 -74 -140 -92h-26q-72 0 -162 63l-29 6h-18l-72 -18h-6q-65 13 -65 68z" />
<glyph unicode="&#x16a;" horiz-adv-x="1134" d="M35 537v813q10 84 63 84h17q68 -15 67 -62v-805q0 -260 148 -348q94 -72 209 -72q221 0 331 228q25 80 25 147v840q12 72 68 72h10q68 -12 67 -68v-883q0 -224 -215 -393q-133 -90 -276 -90h-27q-231 0 -407 231q-80 124 -80 306zM147 1632q12 76 62 76v4l33 -4h606l29 4 q49 0 63 -80q0 -53 -53 -80l-58 4h-571l-53 -4q-58 25 -58 80z" />
<glyph unicode="&#x16b;" horiz-adv-x="1134" d="M35 518v400q8 84 74 83q70 -18 69 -63v-389q0 -250 141 -336q92 -70 201 -70q215 0 324 219q20 68 20 142v424q15 74 74 73q70 -18 70 -69v-871q0 -45 -70 -61h-4q-70 12 -70 70v69h-4q-156 -139 -328 -139h-24q-227 0 -395 223q-78 121 -78 295zM168 1229q12 70 84 69 l520 2q82 -16 82 -71v-12q-8 -70 -78 -70h-536q-66 0 -72 82z" />
<glyph unicode="&#x16c;" horiz-adv-x="1148" d="M35 537v813q10 84 63 84h17q68 -15 67 -62v-805q0 -260 148 -348q94 -72 209 -72q221 0 331 228q25 80 25 147v840q12 72 68 72h10q68 -12 67 -68v-883q0 -224 -215 -393q-133 -90 -276 -90h-27q-231 0 -407 231q-80 124 -80 306zM268 1704v25q16 72 74 71h10 q53 0 84 -84q51 -59 121 -59q101 0 148 110q33 33 61 33h6q78 -12 78 -76v-4q0 -82 -158 -192q-76 -29 -131 -29h-8q-193 0 -285 205z" />
<glyph unicode="&#x16d;" horiz-adv-x="1169" d="M61 518v400q8 84 74 83q70 -18 70 -63v-389q0 -250 141 -336q92 -70 203 -70q213 0 321 219q23 74 23 142v424q16 74 72 73q70 -18 69 -69v-871q0 -45 -69 -61h-4q-68 12 -68 70v69h-4q-156 -139 -330 -139h-24q-227 0 -396 223q-78 121 -78 295zM256 1300v23 q16 74 72 74h12q53 0 84 -84q51 -61 121 -62q100 0 147 113q33 33 60 33h8q76 -12 76 -76v-4q0 -82 -156 -193q-76 -29 -131 -28h-8q-193 -1 -285 204z" />
<glyph unicode="&#x16e;" horiz-adv-x="1126" d="M31 537v813q10 84 63 84h17q68 -15 67 -62v-805q0 -260 148 -348q94 -72 209 -72q221 0 331 228q25 80 25 147v840q12 72 67 72h11q68 -12 67 -68v-883q0 -224 -215 -393q-133 -90 -276 -90h-27q-231 0 -407 231q-80 124 -80 306zM356 1647q0 127 150 182l37 4h14 q123 0 174 -147l4 -39v-11q0 -119 -139 -174l-45 -8q-113 0 -174 115q-21 45 -21 78zM473 1642q12 -70 74 -69q72 12 71 67v11q-12 63 -63 63h-12q-58 0 -70 -72z" />
<glyph unicode="&#x16f;" horiz-adv-x="1179" d="M61 518v400q8 84 74 83q70 -18 70 -63v-389q0 -250 141 -336q92 -70 203 -70q213 0 321 219q23 74 23 142v424q16 74 72 73q70 -18 69 -69v-871q0 -45 -69 -61h-4q-68 12 -68 70v69h-4q-156 -139 -330 -139h-24q-227 0 -396 223q-78 121 -78 295zM362 1221q0 125 148 180 l37 4h14q123 0 174 -148l4 -36v-13q0 -119 -139 -174l-45 -8q-113 0 -174 115q-19 39 -19 80zM479 1217q12 -72 72 -72q72 12 72 67v13q-12 63 -64 63h-12q-56 1 -68 -71z" />
<glyph unicode="&#x170;" horiz-adv-x="1173" d="M57 537v813q10 84 64 84h14q70 -16 70 -62v-805q0 -260 147 -348q94 -72 207 -72q223 0 334 228q23 74 22 147v840q12 72 68 72h12q68 -12 68 -68v-883q0 -224 -215 -393q-133 -90 -277 -90h-26q-233 0 -410 231q-78 120 -78 306zM379 1526v8q102 258 129 285 q29 16 47 16h4q76 -12 76 -74v-18q0 -25 -168 -242q-16 -18 -37 -18h-6q-33 0 -45 43zM623 1513q0 12 112 273q34 37 68 37q80 -15 80 -80q0 -31 -109 -168q-68 -104 -94 -105h-12q-33 0 -45 43z" />
<glyph unicode="&#x171;" horiz-adv-x="1142" d="M43 518v400q8 84 74 83q70 -18 69 -63v-389q0 -248 144 -336q92 -70 200 -70q213 0 322 219q23 74 22 142v424q14 74 72 73q70 -18 70 -69v-871q0 -45 -70 -61h-4q-68 12 -68 70v69h-4q-156 -139 -329 -139h-25q-227 0 -395 223q-78 121 -78 295zM340 1096v8 q102 258 127 282q29 16 47 17h4q78 -12 78 -72v-20q0 -20 -170 -240q-18 -20 -35 -20h-8q-31 0 -43 45zM584 1083q0 18 110 273q33 35 70 35q80 -15 80 -80q0 -31 -109 -168q-68 -104 -96 -105h-12q-31 0 -43 45z" />
<glyph unicode="&#x172;" horiz-adv-x="1200" d="M61 537v813q10 84 66 84h14q68 -15 68 -62v-805q0 -260 147 -348q94 -72 209 -72q221 0 332 228q25 80 25 147v840q12 72 67 72h10q68 -12 68 -68v-883q0 -224 -215 -393q-108 -71 -215 -86v-94q0 -59 -82 -72q-25 -18 -25 -45q0 -53 68 -53h100l17 4q70 -14 69 -68v-6 q0 -45 -57 -67l-74 4h-35l-57 -4q-70 0 -143 92q-25 49 -25 84v28q0 96 107 154v4l-4 37q-199 25 -355 229q-80 124 -80 306z" />
<glyph unicode="&#x173;" horiz-adv-x="1210" d="M53 518v400q8 84 74 83q70 -18 70 -63v-389q0 -250 141 -336q92 -70 201 -70q213 0 321 219q23 74 23 142v424q15 74 73 73q68 -18 68 -69v-862q4 -8 4 -15v-102q0 -57 -82 -70q-25 -18 -24 -47q0 -51 67 -51h103l14 2q70 -14 70 -66v-8q0 -45 -56 -65l-73 4h-37l-56 -4 q-70 0 -143 92q-27 53 -27 84v26q0 98 107 156v4l-2 31q-6 12 -6 29v69h-4q-156 -139 -328 -139h-27q-227 0 -395 223q-76 119 -76 295z" />
<glyph unicode="&#x174;" horiz-adv-x="1777" d="M47 1364q16 72 66 72h14q66 0 84 -113l281 -975h8q291 1026 311 1061q27 27 51 27h12q63 0 87 -136q27 -70 276 -956h4l307 1059q27 33 54 33h16q68 -14 68 -60v-18l-383 -1327q-31 -31 -62 -31h-4q-70 0 -90 139q-242 823 -277 961h-4l-307 -1065q-29 -35 -59 -35h-17 q-63 0 -84 143q-317 1082 -352 1221zM662 1599v13q0 41 118 168q35 59 80 59h29q47 0 135 -127q66 -66 66 -100v-13q-16 -72 -72 -71h-12q-45 0 -129 121h-5q-84 -121 -127 -121h-12q-71 16 -71 71z" />
<glyph unicode="&#x175;" horiz-adv-x="1421" d="M43 936q14 74 76 74q66 0 94 -150l180 -555h4q205 659 221 678q27 25 56 27q68 0 88 -123l188 -582h2q205 643 217 672q31 33 60 33q74 -15 74 -74l-291 -907q-33 -29 -60 -29h-2q-70 0 -96 143q-176 528 -176 553h-8l-213 -663q-25 -33 -60 -33h-4q-51 0 -74 66z M467 1128v13q0 37 121 168q35 59 80 59h26q49 0 137 -127q63 -63 64 -100v-13q-16 -72 -72 -71h-12q-45 0 -129 121h-2q-84 -121 -129 -121h-12q-72 16 -72 71z" />
<glyph unicode="&#x176;" horiz-adv-x="1165" d="M41 1362q16 72 63 72h17q47 0 78 -72l346 -516h4q367 555 387 571q23 16 33 17h22q47 0 66 -72q0 -33 -129 -211l-307 -457v-610q-10 -84 -66 -84h-14q-51 0 -70 61v621q0 18 -158 252l-270 403zM336 1552v13q0 37 121 168q35 59 80 59h26q47 0 137 -129q63 -63 64 -98 v-13q-16 -72 -72 -71h-12q-45 0 -127 118h-4q-82 -119 -129 -118h-12q-72 16 -72 71z" />
<glyph unicode="&#x177;" horiz-adv-x="962" d="M61 936v2q16 70 70 70q57 0 100 -138q231 -545 236 -567h2q272 666 291 688q23 20 49 21q68 -12 68 -66v-4q-4 -27 -345 -840q-158 -399 -182 -426q-16 -14 -45 -20q-70 14 -69 59v17q0 10 157 391v4zM274 1155v12q0 37 121 168q35 59 80 60h29q47 0 135 -127 q63 -63 63 -101v-12q-16 -72 -71 -72h-13q-45 0 -126 119h-5q-82 -119 -129 -119h-12q-72 17 -72 72z" />
<glyph unicode="&#x178;" horiz-adv-x="1148" d="M41 1362q16 72 63 72h17q47 0 78 -72l346 -516h4q367 555 387 571q23 16 33 17h22q47 0 66 -72q0 -33 -129 -211l-307 -457v-610q-10 -84 -66 -84h-14q-51 0 -70 61v621q0 18 -158 252l-270 403zM332 1616q16 72 63 72h15q68 -15 67 -62v-18q0 -55 -71 -68q-74 17 -74 76 zM616 1612v10q0 49 68 66h12q68 -16 68 -66v-10q0 -59 -76 -72q-72 17 -72 72z" />
<glyph unicode="&#x179;" horiz-adv-x="1271" d="M31 80q0 25 182 254l739 956h-846q-76 14 -75 76q16 72 63 72h1022q55 0 68 -72v-4q0 -29 -82 -125l-844 -1090h854q72 -12 72 -71v-4q-12 -72 -72 -72h-1010q-59 0 -71 80zM514 1587v6q0 35 113 162q37 51 73 51q74 -18 74 -69v-6q0 -29 -82 -121q-61 -92 -112 -92h-5 q-47 -1 -61 69z" />
<glyph unicode="&#x17a;" horiz-adv-x="972" d="M43 78q0 27 152 203l467 587h-496l-60 -4q-63 20 -63 74q12 70 68 70v4l36 -4h639l33 4q68 -23 68 -64v-20q0 -25 -86 -117l-533 -668h551q68 -12 68 -65v-12q0 -53 -72 -66h-700q-60 0 -72 78zM381 1169v7q0 35 113 161q37 51 73 52q74 -18 74 -70v-6q0 -29 -82 -121 q-61 -92 -113 -92h-4q-47 -1 -61 69z" />
<glyph unicode="&#x17b;" horiz-adv-x="1323" d="M43 80q0 25 182 254l742 956h-846q-78 16 -78 76q16 72 66 72h1019q55 0 68 -72v-4q0 -29 -82 -125l-842 -1090h852q72 -12 72 -71v-4q-12 -72 -72 -72h-1007q-62 0 -74 80zM520 1681q0 77 86 111q8 4 33 4q92 0 117 -106v-21q0 -63 -82 -100q-12 -6 -35 -6h-2 q-97 -1 -117 118z" />
<glyph unicode="&#x17c;" horiz-adv-x="1003" d="M41 78q0 29 149 203l467 587h-495l-60 -4q-61 20 -61 74q12 70 65 70v4l37 -4h639l33 4q68 -23 68 -64v-20q0 -25 -86 -117l-533 -668h551q68 -12 68 -65v-12q0 -53 -72 -66h-700q-58 0 -70 78zM362 1241q0 77 87 111q12 6 32 6q92 0 117 -109v-20q0 -63 -82 -101 q-12 -6 -35 -6h-2q-97 0 -117 119z" />
<glyph unicode="&#x17d;" horiz-adv-x="1292" d="M47 80q0 25 182 254l742 956h-846q-78 16 -78 76q16 72 66 72h1020q55 0 67 -72v-4q0 -29 -82 -125l-842 -1090h852q72 -12 72 -71v-4q-12 -72 -72 -72h-1007q-62 0 -74 80zM422 1751v12q16 72 72 72h12q47 0 129 -119h4q82 119 127 119h12q72 -16 72 -72v-12 q0 -33 -96 -139q-61 -88 -105 -88h-26q-45 0 -134 125q-67 67 -67 102z" />
<glyph unicode="&#x17e;" horiz-adv-x="976" d="M41 78q0 29 149 203l467 587h-495l-60 -4q-61 20 -61 74q12 70 65 70v4l37 -4h639l33 4q68 -23 68 -64v-20q0 -25 -86 -117l-533 -668h551q68 -12 68 -65v-12q0 -53 -72 -66h-700q-58 0 -70 78zM276 1374v12q16 72 72 72h12q45 0 129 -121h5q84 121 127 121h12 q72 -16 72 -72v-12q0 -33 -97 -139q-61 -88 -102 -88h-29q-47 0 -133 123q-68 67 -68 104z" />
<glyph unicode="&#x17f;" horiz-adv-x="614" d="M74 63l4 48v749l-4 146v67q0 254 223 348l88 17h90q53 0 66 -80q0 -51 -76 -70h-57q-139 0 -183 -151l-4 -78v-53v-146v-749l4 -43q0 -49 -75 -68q-51 0 -76 63z" />
<glyph unicode="&#x192;" horiz-adv-x="972" d="M43 -281q12 80 78 80h51q137 0 193 121q16 43 16 135v760h-209q-55 0 -68 84q0 43 64 74l80 -4h129v71q0 270 235 369l93 14h96q55 0 67 -84q0 -53 -80 -71h-61q-145 0 -190 -160l-5 -84v-55h173l63 4q49 0 68 -76v-12q0 -51 -72 -70h-232v-760l5 -96q-14 -104 -80 -190 q-119 -125 -256 -125h-84q-62 -1 -74 75z" />
<glyph unicode="&#x1fa;" horiz-adv-x="1265" d="M43 70v4l129 329q311 768 363 920q-41 23 -74 80q-16 39 -17 67q0 86 78 134q-18 14 -28 55v4q0 31 102 145q35 47 66 47q66 -16 65 -63v-4q0 -31 -74 -111q-20 -31 -37 -47q104 0 152 -127l2 -33v-10q0 -88 -96 -137q16 -29 31 -86q458 -1134 460 -1161v-10 q0 -53 -71 -66h-4q-66 0 -95 123l-170 422h-440l-209 -522q-33 -23 -53 -23h-6q-74 13 -74 70zM444 686h324v2l-162 408h-4zM545 1466q12 -59 61 -59q63 10 64 57v11q-9 55 -56 55h-10q-49 -1 -59 -64z" />
<glyph unicode="&#x1fb;" horiz-adv-x="1169" d="M41 506q0 281 274 442q117 55 228 56q283 0 450 -279q51 -111 51 -233v-426q0 -53 -69 -66h-4q-49 0 -70 55v4l4 91v4q-164 -154 -348 -154h-31q-254 0 -424 256q-61 123 -61 250zM182 498q0 -217 221 -328q74 -27 123 -27h31q184 0 299 183q45 90 45 166v14 q0 211 -209 321q-68 33 -149 33h-4q-223 0 -334 -229q-23 -74 -23 -121v-12zM373 1260v12q0 123 151 172l33 4q104 0 166 -111q16 -35 16 -77q0 -123 -141 -175l-39 -4h-12q-119 0 -170 144zM451 1579v6q0 35 112 162q37 51 76 51q72 -18 72 -69v-9q0 -33 -80 -121 q-61 -92 -115 -92h-4q-45 0 -61 72zM487 1253q18 -59 60 -59h12q57 0 68 70q-12 70 -70 69q-70 -12 -70 -65v-15z" />
<glyph unicode="&#x1fc;" horiz-adv-x="1613" d="M57 80q0 25 242 446l494 885q31 25 45 25h594q45 0 63 -72q-16 -76 -76 -76h-499v-567h391q68 -15 67 -62v-20q0 -55 -71 -68h-387v-424h503q57 0 72 -75q0 -57 -76 -72h-573q-59 0 -74 76v495h-276q-18 -20 -166 -295l-144 -253q-29 -23 -53 -23h-4q-60 0 -72 80z M575 721h197v350zM842 1610v8q0 33 112 160q37 53 74 53q74 -18 74 -72v-6q0 -33 -80 -121q-61 -92 -115 -92h-4q-47 0 -61 70z" />
<glyph unicode="&#x1fd;" horiz-adv-x="2041" d="M43 508q0 276 274 440q117 55 228 56q262 0 430 -244h4q90 156 276 219q80 20 152 20q276 0 440 -270q55 -115 56 -211v-47q-12 -70 -70 -70h-766v-4q37 -123 137 -188q98 -63 199 -64q89 0 196 56l19 4q74 -18 74 -74q0 -92 -242 -127l-51 -4q-193 0 -355 150v-80 q0 -63 -75 -70h-4q-39 0 -64 57l4 88v13q-160 -154 -346 -154h-29q-256 0 -424 254q-63 127 -63 250zM186 500q0 -217 220 -328q76 -27 124 -27h29q182 0 299 185q43 86 43 164v14q0 213 -207 321q-68 33 -149 33h-4q-221 0 -332 -229q-23 -74 -23 -121v-12zM895 1143v8 q0 33 113 160q37 53 73 53q74 -18 74 -72v-6q0 -29 -82 -121q-61 -92 -112 -92h-5q-47 0 -61 70zM1055 545h698v4q0 96 -117 219q-111 86 -233 86q-186 0 -303 -174q-45 -86 -45 -135z" />
<glyph unicode="&#x1fe;" horiz-adv-x="1654" d="M61 80q0 31 125 137q4 14 41 39q-166 209 -166 461q0 340 301 573q197 135 412 135q270 0 494 -196q150 152 180 151h6q72 -18 72 -69v-8q0 -41 -105 -123l-59 -62q127 -195 127 -409q0 -354 -324 -592q-184 -117 -383 -117h-14q-233 0 -436 154h-2q-152 -150 -174 -150 l-19 -4h-4q-60 0 -72 80zM209 707q0 -199 127 -351l821 774v5q-176 145 -383 145q-281 0 -465 -244q-100 -145 -100 -329zM436 256q162 -111 332 -111h18q266 0 451 238q104 150 104 330q0 156 -86 305h-4zM688 1606v6q0 31 115 162q37 51 74 51q72 -18 71 -70v-6 q0 -33 -80 -123q-59 -90 -112 -90h-4q-50 0 -64 70z" />
<glyph unicode="&#x1ff;" horiz-adv-x="1187" d="M47 80q0 31 98 125q-98 135 -98 295q0 240 215 405q139 92 284.5 92t282.5 -92q86 106 132 107h4q57 0 69 -76q0 -29 -102 -127q113 -137 112 -309q0 -283 -266 -443q-113 -57 -221 -57h-29q-135 0 -284 102q-80 -98 -119 -98h-14q-52 0 -64 76zM195 492q0 -90 49 -183h4 l477 492q-74 51 -182 51q-225 0 -330 -238q-18 -57 -18 -104v-18zM346 205q96 -59 191 -60h20q207 0 317 215q25 68 25 132v18q0 104 -70 197zM463 1192v6q0 35 112 162q37 51 74 51q74 -18 74 -70v-6q0 -29 -82 -121q-61 -92 -113 -92h-4q-47 0 -61 70z" />
<glyph unicode="&#x2c6;" horiz-adv-x="1024" d="M313 1192v10q0 41 119 168q37 61 80 62h29q49 0 137 -129q63 -63 63 -101v-10q-16 -74 -71 -74h-13q-45 0 -129 121h-4q-84 -121 -127 -121h-12q-72 17 -72 74z" />
<glyph unicode="&#x2c7;" horiz-adv-x="1024" d="M287 1346v12q16 72 71 72h13q45 0 127 -119h4q82 119 129 119h10q74 -16 74 -72v-12q0 -33 -97 -140q-61 -88 -104 -88h-29q-45 0 -131 123q-67 68 -67 105z" />
<glyph unicode="&#x2c9;" horiz-adv-x="1058" d="M238 1241q12 78 71 78v4l39 -4h402l34 4q53 0 76 -82q0 -55 -67 -80l-60 4h-364l-64 -4q-67 25 -67 80z" />
<glyph unicode="&#x2d8;" horiz-adv-x="1024" d="M229 1270v22q16 74 72 74h12q51 0 84 -86q51 -59 119 -59q102 0 150 112q33 33 59 33h8q76 -12 76 -78v-4q0 -80 -156 -190q-76 -29 -133 -29h-8q-191 0 -283 205z" />
<glyph unicode="&#x2d9;" horiz-adv-x="1024" d="M420 1245q0 77 86 111q12 6 33 6q92 0 116 -107v-20q0 -66 -82 -102q-12 -6 -34 -7h-2q-97 0 -117 119z" />
<glyph unicode="&#x2da;" horiz-adv-x="1024" d="M334 1260v12q0 123 149 172l33 4q104 0 166 -111q18 -39 18 -77q0 -123 -143 -175l-37 -4h-14q-117 0 -168 144zM446 1253q18 -59 60 -59h14q55 0 66 70q-12 70 -70 69q-70 -12 -70 -65v-15z" />
<glyph unicode="&#x2db;" horiz-adv-x="1024" d="M332 -227q0 96 104 153v4l-4 58q20 59 68 59h8q53 0 65 -70v-104q0 -57 -79 -70q-25 -18 -25 -45q0 -53 66 -53h102l14 4q72 -16 72 -67v-7q0 -45 -57 -67l-74 4h-37l-55 -4q-70 0 -144 92q-25 49 -24 84v29z" />
<glyph unicode="&#x2dc;" horiz-adv-x="1024" d="M299 1597v9q0 72 137 86l17 4q76 0 188 -72l33 -4l76 22h8q72 -12 71 -71v-4q0 -68 -124 -90l-37 -4q-80 0 -183 71l-28 4l-84 -22q-74 14 -74 71z" />
<glyph unicode="&#x2dd;" horiz-adv-x="1024" d="M264 1120v8q102 260 127 285q29 16 49 17h4q76 -12 76 -72v-21q0 -23 -168 -239q-18 -20 -37 -21h-8q-31 0 -43 43zM508 1110q0 10 113 270q34 37 67 37q80 -15 80 -80q0 -31 -109 -168q-68 -104 -96 -104h-10q-33 0 -45 45z" />
<glyph unicode="&#x384;" horiz-adv-x="391" d="M94 1204v8q0 33 113 160q37 53 74 53q74 -18 73 -69v-8q0 -29 -82 -121q-61 -92 -112 -92h-4q-48 -1 -62 69z" />
<glyph unicode="&#x385;" horiz-adv-x="796" d="M102 1229q18 80 80 80q80 -18 80 -80q-15 -80 -80 -80q-80 15 -80 80zM287 1169v9q0 33 112 159q37 53 74 54q74 -18 74 -70v-8q0 -31 -80 -121q-61 -92 -115 -92h-4q-47 -1 -61 69zM555 1229q18 80 80 80q80 -18 80 -80q-15 -80 -80 -80q-80 15 -80 80z" />
<glyph unicode="&#x386;" horiz-adv-x="1253" d="M35 72v4l129 346q334 868 362 969q35 37 66 36q66 0 100 -139q457 -1188 459 -1208v-12q0 -55 -72 -68h-4q-68 0 -94 127l-168 440h-440l-205 -544q-33 -23 -53 -23h-9q-71 13 -71 72zM182 1300v9q0 33 113 159q37 53 74 54q74 -18 73 -72v-6q0 -29 -82 -121 q-61 -92 -112 -92h-4q-48 -1 -62 69zM432 715h324v4l-160 424h-4z" />
<glyph unicode="&#x387;" horiz-adv-x="403" d="M86 887q0 76 84 108q12 6 35 6q90 0 114 -106v-21q0 -66 -81 -102q-8 -4 -33 -4h-4q-95 0 -115 119z" />
<glyph unicode="&#x388;" horiz-adv-x="1345" d="M33 1239v8q0 35 112 162q37 51 74 51q74 -18 74 -69v-9q0 -29 -82 -120q-61 -92 -113 -93h-4q-47 0 -61 70zM322 72v1288q12 72 71 72v4l19 -4h739l16 4q63 0 76 -82q-16 -70 -84 -70h-690v-510h453l53 4q49 0 67 -76q0 -47 -61 -75l-74 4h-438v-484h711q51 0 63 -79 q-23 -68 -67 -68h-783q-71 13 -71 72z" />
<glyph unicode="&#x389;" horiz-adv-x="1464" d="M41 1204v8q0 33 113 160q37 53 73 53q74 -18 74 -69v-8q0 -29 -82 -121q-61 -92 -113 -92h-4q-47 -1 -61 69zM326 80v1274q10 84 63 84h17q68 -15 67 -62v-598h713v588q12 72 67 72h11q68 -12 67 -70v-1300q0 -47 -71 -64h-5q-70 12 -69 72v561h-713v-565q0 -55 -72 -68 h-4q-57 0 -71 76z" />
<glyph unicode="&#x38a;" horiz-adv-x="747" d="M23 1233v6q0 35 112 162q37 51 76 51q72 -18 72 -70v-8q0 -31 -80 -121q-61 -92 -115 -92h-2q-47 0 -63 72zM319 72v4q16 74 66 74h23v1146h-17q-63 0 -72 80v4q0 45 72 68l21 -2h141l14 2q76 -14 76 -76q-12 -76 -72 -76h-16v-1146h25q47 0 63 -74v-4q-12 -72 -72 -72 h-180q-72 13 -72 72z" />
<glyph unicode="&#x38c;" horiz-adv-x="1732" d="M33 1229v6q0 35 112 162q37 51 74 51q74 -18 74 -70v-8q0 -29 -82 -121q-61 -92 -113 -92h-4q-45 0 -61 72zM195 721q0 344 301 577q199 137 415 138q365 0 609 -336q109 -186 108 -385q0 -362 -323 -598q-184 -117 -385 -117h-17q-371 0 -604 344q-104 170 -104 377z M342 711q0 -274 242 -461q152 -102 319 -103h21q268 0 452 238q106 152 107 334q0 307 -285 489q-141 80 -287 80q-281 0 -469 -246q-100 -145 -100 -331z" />
<glyph unicode="&#x38e;" horiz-adv-x="1456" d="M49 1223v8q0 29 115 160q37 53 74 53q72 -18 71 -72v-6q0 -31 -80 -121q-61 -92 -112 -92h-4q-50 0 -64 70zM375 1362q16 72 63 72h17q49 0 80 -72l344 -516h4q367 555 387 571q23 16 35 17h22q45 0 64 -72q0 -33 -129 -211l-308 -457v-610q-10 -84 -63 -84h-17 q-49 0 -67 61v621q0 15 -160 252l-268 403z" />
<glyph unicode="&#x38f;" horiz-adv-x="1644" d="M16 1219v8q0 33 113 159q37 53 76 54q72 -18 71 -72v-6q0 -31 -79 -121q-61 -92 -113 -92h-4q-50 0 -64 70zM57 725q0 336 310 578q199 135 413 135q369 0 615 -340q111 -197 110 -373q0 -340 -264 -569h-4v-4h166q72 -14 72 -64v-16q-16 -68 -68 -68h-494q-59 0 -71 80 q18 68 69 68q102 0 289 157q160 186 160 408q0 272 -244 469q-160 102 -319 102h-31q-274 0 -461 -248q-102 -156 -102 -323q0 -330 305 -514q61 -37 174 -62q45 -18 45 -71q-23 -70 -72 -70h-485q-76 14 -76 76q18 74 74 74h160v2q-96 74 -164 180q-107 186 -107 393z" />
<glyph unicode="&#x390;" horiz-adv-x="739" d="M45 1616q18 80 80 80q80 -18 80 -80q-15 -80 -80 -80q-80 15 -80 80zM197 72v4q16 74 65 74h23v1146h-17q-63 0 -71 80v4q0 45 71 68l21 -2h141l14 2q76 -14 76 -76q-12 -76 -71 -76h-17v-1146h25q47 0 63 -74v-4q-12 -72 -71 -72h-181q-71 13 -71 72zM229 1556v9 q0 33 113 159q37 53 76 54q72 -18 71 -72v-6q0 -33 -79 -121q-61 -92 -113 -92h-4q-50 -1 -64 69zM498 1616q18 80 80 80q80 -18 79 -80q-15 -80 -79 -80q-80 15 -80 80z" />
<glyph unicode="&#x391;" horiz-adv-x="1245" d="M35 72v4l129 346q334 868 362 969q35 37 66 36q66 0 100 -139q457 -1188 459 -1208v-12q0 -55 -72 -68h-4q-68 0 -94 127l-168 440h-440l-205 -544q-33 -23 -53 -23h-9q-71 13 -71 72zM432 715h324v4l-160 424h-4z" />
<glyph unicode="&#x392;" horiz-adv-x="989" d="M53 72v1286q12 72 72 72v2l18 -2h230l14 2q172 0 295 -162q61 -89 61 -197v-10q0 -127 -102 -246q246 -135 246 -391t-269 -395q-86 -31 -153 -31h-340q-72 13 -72 72zM201 147h194q217 0 291 123q49 68 49 156v6q0 205 -223 273l-104 8h-207v-566zM201 858h139 q184 0 238 133q14 35 14 76v10q0 145 -170 201l-80 4h-141v-424z" />
<glyph unicode="&#x393;" horiz-adv-x="1028" d="M57 76v1274q10 84 64 84h731q68 -15 68 -62v-18q0 -55 -72 -68h-643v-1218q0 -55 -72 -68h-4q-58 0 -72 76z" />
<glyph unicode="&#x394;" horiz-adv-x="1241" d="M41 80l498 1323q27 29 57 29h10q61 0 88 -117q455 -1184 467 -1239v-4q0 -49 -55 -72l-84 4h-842l-80 -4q-59 21 -59 80zM221 152h760q-375 995 -383 997z" />
<glyph unicode="&#x395;" horiz-adv-x="1107" d="M57 72v1288q12 72 72 72v4l18 -4h742l14 4q63 0 76 -82q-16 -70 -82 -70h-692v-510h452l54 4q49 0 67 -76q0 -49 -59 -75l-76 4h-438v-484h710q51 0 64 -79q-20 -68 -68 -68h-782q-72 13 -72 72z" />
<glyph unicode="&#x396;" horiz-adv-x="1341" d="M84 80q0 29 180 254l742 956h-846q-76 14 -76 76q16 72 63 72h1020q57 0 70 -72v-4q0 -25 -84 -125l-842 -1090h852q74 -12 74 -71v-4q-12 -72 -74 -72h-1007q-60 0 -72 80z" />
<glyph unicode="&#x397;" horiz-adv-x="1222" d="M76 80v1274q10 84 63 84h15q68 -15 67 -62v-598h713v588q12 72 67 72h13q68 -12 67 -70v-1300q0 -47 -71 -64h-4q-72 12 -72 72v561h-713v-565q0 -55 -69 -68h-5q-57 0 -71 76z" />
<glyph unicode="&#x398;" horiz-adv-x="1609" d="M70 719q0 342 301 575q199 137 415 138q362 0 607 -336q109 -193 108 -383q0 -358 -323 -596q-184 -117 -385 -117h-15q-373 0 -604 342q-104 174 -104 377zM217 709q0 -272 242 -459q152 -102 319 -103h19q268 0 452 238q104 151 105 332q0 307 -283 487 q-137 80 -285 80q-283 0 -467 -246q-102 -149 -102 -329zM356 709v14q0 47 72 63h715q72 -12 71 -69v-4q-12 -74 -71 -74h-719q-68 17 -68 70z" />
<glyph unicode="&#x399;" horiz-adv-x="579" d="M109 72v4q14 74 65 74h23v1146h-17q-61 0 -71 80v4q0 45 71 68l21 -2h141l14 2q76 -14 76 -76q-12 -76 -72 -76h-16v-1146h25q49 0 63 -74v-4q-12 -72 -72 -72h-180q-71 13 -71 72z" />
<glyph unicode="&#x39a;" horiz-adv-x="1116" d="M45 76v1284q15 74 74 74h2q72 -12 72 -68v-653q698 698 706 698l27 4h8q68 -12 67 -67v-13q0 -37 -79 -100l-465 -469l532 -660l4 -22v-12q0 -55 -71 -68h-4q-45 0 -125 117l-445 541l-155 -160v-434q0 -55 -72 -68h-2q-58 0 -74 76z" />
<glyph unicode="&#x39b;" horiz-adv-x="1230" d="M35 80l502 1329q27 29 57 29h10q59 0 86 -117q459 -1190 471 -1245v-4q-12 -72 -71 -72h-5q-51 0 -75 68q-406 1085 -412 1085l-426 -1122q-31 -31 -61 -31h-5q-59 0 -71 80z" />
<glyph unicode="&#x39c;" horiz-adv-x="1478" d="M59 76v1274q8 82 66 82h14q57 0 82 -99l481 -1073q18 20 336 750l187 399q23 23 49 23h14q55 0 64 -82v-1274q-14 -76 -72 -76h-4q-72 12 -72 68v942h-4q-432 -977 -436 -983q-31 -27 -57 -27q-65 0 -117 160l-379 846h-4v-938q0 -55 -72 -68h-4q-58 0 -72 76z" />
<glyph unicode="&#x39d;" horiz-adv-x="1327" d="M66 80v1268q10 84 63 84h16q47 0 82 -76q90 -104 822 -1051q8 0 8 -10l4 -4h4v1073q12 68 68 68h10q55 0 67 -72v-1284q0 -63 -77 -76q-45 0 -134 131l-786 1006v-1065q0 -55 -72 -68h-4q-55 0 -71 76z" />
<glyph unicode="&#x39e;" horiz-adv-x="1157" d="M43 76q18 72 74 71h864q72 -12 72 -67v-12q-12 -68 -70 -68h-866q-60 0 -74 76zM43 1360q16 72 66 72h874q70 -12 70 -68v-14q0 -55 -84 -66h-848q-78 17 -78 76zM158 731q18 72 71 72h637q72 -12 72 -72v-4q-12 -72 -72 -72h-637q-55 0 -71 76z" />
<glyph unicode="&#x39f;" horiz-adv-x="1619" d="M76 721q0 344 301 577q199 137 416 138q365 0 608 -336q109 -186 108 -385q0 -362 -323 -598q-184 -117 -385 -117h-17q-371 0 -604 344q-104 170 -104 377zM221 711q0 -272 244 -461q152 -102 319 -103h21q268 0 452 238q106 152 107 334q0 307 -285 489 q-141 80 -286 80q-281 0 -469 -246q-103 -149 -103 -331z" />
<glyph unicode="&#x3a0;" horiz-adv-x="1183" d="M66 76v1272q10 84 63 84h872q68 -12 68 -68v-1301q0 -47 -72 -63h-2q-72 12 -71 72v1210h-711v-1214q0 -55 -72 -68h-4q-55 0 -71 76z" />
<glyph unicode="&#x3a1;" horiz-adv-x="944" d="M57 76v1278q10 84 64 84h346q201 0 344 -209q53 -111 53 -193v-26q0 -190 -170 -328q-117 -80 -227 -80h-262v-534q0 -55 -72 -68h-4q-58 0 -72 76zM205 752h235q190 0 262 182q14 35 15 90q0 168 -170 248q-43 18 -98 18h-244v-538z" />
<glyph unicode="&#x3a3;" horiz-adv-x="1122" d="M72 70q0 31 78 98l419 485l-487 561q-10 20 -10 35q16 66 59 66h805q61 -12 61 -64v-14q0 -49 -75 -57h-631q403 -461 432 -502l2 -21v-10q0 -35 -76 -104l-348 -404v-4h631q66 -12 65 -61v-11q-12 -63 -61 -63h-799q-53 0 -65 70z" />
<glyph unicode="&#x3a4;" horiz-adv-x="1261" d="M66 1364q16 72 63 72h934q68 -12 67 -68v-14q0 -55 -83 -66h-375v-1220q0 -55 -74 -68h-2q-57 0 -72 76v1212h-383q-75 15 -75 76z" />
<glyph unicode="&#x3a5;" horiz-adv-x="1236" d="M78 1362q16 72 63 72h17q49 0 80 -72l344 -516h4q367 555 387 571q23 16 35 17h22q45 0 64 -72q0 -33 -129 -211l-308 -457v-610q-10 -84 -63 -84h-16q-49 0 -68 61v621q0 15 -160 252l-268 403z" />
<glyph unicode="&#x3a6;" horiz-adv-x="1628" d="M59 723q0 264 277 451q113 84 369 120v72q12 74 67 74h12q70 -12 70 -70v-76q188 -16 375 -120q272 -190 272 -455q0 -248 -250 -434q-115 -88 -338 -133q-59 -2 -59 -11v-75q0 -49 -74 -66h-4q-72 12 -71 72v75h-5q-141 0 -346 107q-295 190 -295 469zM207 723 q0 -262 315 -412q127 -41 183 -41v904q-180 -20 -334 -134q-164 -147 -164 -317zM854 270h2q145 0 338 133q156 143 156 299v35q0 209 -246 361q-84 51 -250 76v-904z" />
<glyph unicode="&#x3a7;" horiz-adv-x="1337" d="M68 72v12q0 25 161 223l324 418q-465 588 -481 618l-4 23q16 72 63 72h16q43 0 72 -58l424 -542l459 587q20 12 39 13h10q57 0 70 -72v-4q0 -31 -103 -152l-383 -493l477 -611l9 -30v-4q-12 -72 -72 -72h-4q-49 0 -84 72l-418 530l-459 -588q-20 -14 -41 -14h-4 q-71 13 -71 72z" />
<glyph unicode="&#x3a8;" horiz-adv-x="1341" d="M59 1055v299q10 84 64 84h16q68 -15 68 -62v-313q12 -137 43 -207q86 -168 242 -219l67 -19v736q10 84 66 84h14q68 -15 68 -62v-758h4q100 6 243 134q111 133 111 331v285q12 70 68 70h10q57 0 69 -72v-336q0 -324 -323 -514q-141 -53 -182 -53v-395q0 -55 -72 -68h-2 q-59 0 -74 76v387q-84 6 -231 84q-269 186 -269 508z" />
<glyph unicode="&#x3a9;" horiz-adv-x="1656" d="M57 725q0 336 310 578q199 135 413 135q369 0 615 -340q111 -197 110 -373q0 -340 -264 -569h-4v-4h166q72 -14 72 -64v-16q-16 -68 -68 -68h-494q-59 0 -71 80q18 68 69 68q102 0 289 157q160 186 160 408q0 272 -244 469q-160 102 -319 102h-31q-274 0 -461 -248 q-102 -156 -102 -323q0 -330 305 -514q61 -37 174 -62q45 -18 45 -71q-23 -70 -72 -70h-485q-76 14 -76 76q18 74 74 74h160v2q-96 74 -164 180q-107 186 -107 393z" />
<glyph unicode="&#x3aa;" horiz-adv-x="647" d="M80 1612q16 72 63 71h17q68 -15 67 -61v-18q0 -55 -71 -68q-76 17 -76 76zM139 72v4q16 72 66 71h22v1133h-14q-65 0 -74 80v4q0 45 74 68l18 -5h140l14 5q76 -16 76 -76q-12 -76 -72 -76h-14v-1133h20q49 0 66 -71v-4q-12 -72 -72 -72h-176q-74 13 -74 72zM367 1608v12 q0 47 67 63h10q68 -16 68 -63v-12q0 -59 -74 -72q-71 17 -71 72z" />
<glyph unicode="&#x3ab;" horiz-adv-x="1214" d="M57 1362q16 72 64 72h16q47 0 78 -72l346 -516h4q367 555 387 571q23 16 33 17h25q45 0 63 -72q0 -33 -129 -211l-307 -457v-610q-10 -84 -64 -84h-16q-49 0 -68 61v621q0 15 -159 252l-269 403zM348 1616q16 72 64 72h14q70 -16 70 -62v-18q0 -55 -72 -68q-76 17 -76 76 zM635 1612v10q0 49 67 66h11q68 -16 67 -66v-10q0 -59 -73 -72q-72 17 -72 72z" />
<glyph unicode="&#x3ac;" horiz-adv-x="1413" d="M63 508q0 276 263 444q127 63 247 64q256 0 426 -242l31 -59q15 25 105 264q29 37 61 37q76 -16 76 -76q-2 -12 -160 -432q160 -414 160 -434q-18 -74 -76 -74q-66 0 -106 160l-52 137h-8q-49 -119 -168 -201q-127 -96 -295 -96h-14q-205 0 -383 193q-107 149 -107 315z M209 508q0 -221 217 -334q80 -29 152 -29q209 0 325 217l53 146q-66 223 -174 293q-92 66 -200 65h-19q-199 0 -311 -188q-43 -88 -43 -170zM485 1200v6q0 35 113 162q37 51 76 51q72 -18 71 -69v-7q0 -33 -79 -120q-61 -92 -113 -93h-4q-50 0 -64 70z" />
<glyph unicode="&#x3ad;" horiz-adv-x="899" d="M63 729q0 193 240 281l70 8h37q160 0 317 -164q27 -31 27 -55v-8q0 -59 -86 -72q-47 0 -113 84q-96 66 -158 65h-20q-94 0 -144 -110v-51q0 -70 109 -113q14 -8 47 -8h68q82 -12 82 -74v-6q0 -70 -113 -70q-123 0 -170 -92l-12 -53q27 -141 157 -141h5q111 0 223 133 q29 16 51 16q74 0 86 -82v-4q-29 -88 -180 -168q-88 -45 -180 -45h-17q-184 0 -293 184q-20 59 -20 111q0 117 102 211q-115 96 -115 223zM326 1196v6q0 35 112 162q37 51 74 51q74 -18 74 -69v-7q0 -33 -80 -120q-61 -92 -115 -93h-4q-47 0 -61 70z" />
<glyph unicode="&#x3ae;" horiz-adv-x="1189" d="M59 68v847q10 84 72 84q72 -18 72 -61v-82q158 143 348 143q207 0 367 -172q117 -143 116 -305v-880q0 -49 -76 -62q-66 18 -65 70v825q0 274 -240 365q-55 14 -102 14h-10q-201 0 -310 -207q-29 -68 -28 -201v-385q0 -53 -72 -65h-2q-56 0 -70 72zM440 1180v6 q0 35 113 162q37 51 74 51q74 -18 73 -70v-6q0 -31 -82 -123q-59 -90 -112 -90h-4q-48 0 -62 70z" />
<glyph unicode="&#x3af;" horiz-adv-x="466" d="M90 1171v7q0 35 113 161q37 51 73 52q74 -18 74 -70v-6q0 -29 -82 -121q-61 -92 -112 -92h-4q-48 -1 -62 69zM129 74v850q8 84 74 84q70 -18 69 -64v-878q0 -53 -69 -66h-4q-56 0 -70 74z" />
<glyph unicode="&#x3b0;" horiz-adv-x="1202" d="M84 520v400q10 84 74 84q70 -18 69 -62v-391q0 -252 144 -338q88 -70 200 -70q217 0 324 219q20 68 20 144v426q14 72 74 72q70 -14 70 -70v-465q0 -218 -209 -381q-131 -88 -268 -88h-25q-227 0 -395 223q-78 121 -78 297zM266 1229q18 80 80 80q80 -18 80 -80 q-15 -80 -80 -80q-80 15 -80 80zM451 1169v9q0 33 112 159q37 53 76 54q72 -18 72 -70v-8q0 -31 -80 -121q-61 -92 -115 -92h-4q-47 -1 -61 69zM719 1229q18 80 80 80q80 -18 80 -80q-15 -80 -80 -80q-80 15 -80 80z" />
<glyph unicode="&#x3b1;" horiz-adv-x="1413" d="M76 508q0 274 264 444q127 63 248 64q256 0 426 -242l28 -59q15 25 105 264q29 37 63 37q74 -16 74 -76q-2 -12 -160 -432q160 -414 160 -434q-18 -74 -74 -74q-68 0 -108 160l-51 137h-9q-49 -121 -165 -201q-127 -96 -297 -96h-15q-205 0 -383 193q-106 149 -106 315z M221 508q0 -221 217 -334q80 -29 154 -29q209 0 326 217l51 146q-66 223 -174 293q-92 66 -199 65h-21q-199 0 -311 -188q-43 -88 -43 -170z" />
<glyph unicode="&#x3b2;" horiz-adv-x="997" d="M68 -281v629v131v592q0 193 206 322q92 41 177 41h4q236 0 356 -238q29 -70 29 -137v-15q0 -158 -140 -286v-4q193 -127 193 -346q0 -227 -238 -367q-104 -39 -182 -39q-127 0 -256 92v-440q-4 -76 -70 -78q-68 -4 -79 64v79zM217 401q0 -117 113 -200q63 -45 147 -45 q190 0 254 192l8 53v15q0 182 -202 250l-56 4h-129q-74 12 -73 71v17q0 45 69 63h66q195 0 256 144q14 43 14 79v19q0 156 -182 217l-51 2q-164 0 -226 -176l-8 -107v-598z" />
<glyph unicode="&#x3b3;" horiz-adv-x="1056" d="M92 934q14 74 76 74q65 0 104 -142l242 -602h8q281 707 295 721q35 23 53 23q74 -16 74 -74q0 -23 -346 -871l-8 -30v-400q0 -57 -76 -69q-70 14 -70 69v412q0 20 -348 862z" />
<glyph unicode="&#x3b4;" horiz-adv-x="1232" d="M63 518q0 280 265 449q119 59 174 59l-379 285q-18 25 -19 49q12 72 68 72v4l39 -4h707q74 -14 73 -72v-8q-12 -68 -67 -68v-4l-27 4h-489l512 -377q178 -172 178 -389q0 -293 -277 -459q-117 -59 -229 -59h-31q-209 0 -389 197q-109 153 -109 321zM213 510 q0 -207 201 -322q74 -37 155 -36h23q215 0 328 223q27 68 26 135v18q0 172 -158 291q-94 66 -210 66q-237 0 -345 -246q-20 -68 -20 -111v-18z" />
<glyph unicode="&#x3b5;" horiz-adv-x="894" d="M63 729q0 193 240 281l70 8h37q160 0 317 -164q27 -31 27 -55v-8q0 -59 -86 -72q-47 0 -113 84q-96 66 -158 65h-20q-94 0 -144 -110v-51q0 -70 109 -113q14 -8 47 -8h68q82 -12 82 -74v-6q0 -70 -113 -70q-123 0 -170 -92l-12 -53q27 -141 157 -141h5q111 0 223 133 q29 16 51 16q74 0 86 -82v-4q-29 -88 -180 -168q-88 -45 -180 -45h-17q-184 0 -293 184q-20 59 -20 111q0 117 102 211q-115 96 -115 223z" />
<glyph unicode="&#x3b6;" horiz-adv-x="1050" d="M127 547v41q0 264 272 479l248 219h-364q-76 14 -76 74v4q12 72 67 72h584q70 -16 70 -62v-18q0 -43 -72 -80q-446 -393 -491 -445q-90 -117 -91 -266q0 -238 222 -368q86 -53 241 -54q125 -31 183 -106q61 -82 61 -174v-4q0 -203 -223 -279h-8q-72 16 -72 66v14 q0 57 90 82q70 47 70 121q0 86 -88 125l-39 12l-29 -4q-236 0 -430 213q-125 168 -125 338z" />
<glyph unicode="&#x3b7;" horiz-adv-x="1177" d="M59 68v847q10 84 72 84q72 -18 72 -61v-82q158 143 348 143q207 0 367 -172q117 -143 116 -305v-880q0 -49 -76 -62q-66 18 -65 70v825q0 274 -240 365q-55 14 -102 14h-10q-201 0 -310 -207q-29 -68 -28 -201v-385q0 -53 -72 -65h-2q-56 0 -70 72z" />
<glyph unicode="&#x3b8;" horiz-adv-x="1157" d="M115 711v12q0 274 98 496q141 211 344 211q248 0 377 -263q72 -225 72 -407v-86q0 -231 -95 -463q-137 -211 -346 -211h-10q-227 0 -358 242q-82 209 -82 469zM250 643q2 -141 72 -348q92 -152 229 -152h10q242 0 291 342q18 109 18 158h-620zM250 791h620q0 160 -79 360 q-94 135 -230 135q-154 0 -239 -158q-63 -172 -66 -280z" />
<glyph unicode="&#x3b9;" horiz-adv-x="440" d="M117 74v850q8 84 73 84q70 -18 70 -64v-878q0 -53 -70 -66h-4q-55 0 -69 74z" />
<glyph unicode="&#x3ba;" horiz-adv-x="1085" d="M74 68v927q12 66 65 78h23q57 -16 59 -80v-364q500 330 625 403h18q59 0 72 -78q0 -45 -121 -110q-291 -197 -307 -201v-4l424 -537l4 -22v-4q-12 -72 -72 -72h-8q-43 0 -131 127l-342 424h-2l-160 -100v-387q0 -55 -71 -68h-5q-53 0 -71 68z" />
<glyph unicode="&#x3bb;" horiz-adv-x="1118" d="M61 143l236 498l139 295l-168 364q-31 104 43 123q78 18 103 -57l600 -1260q12 -100 -53.5 -104t-98.5 53l-332 688h-4q-322 -682 -348 -716q-41 -53 -102 -23q-64 33 -15 139z" />
<glyph unicode="&#x3bc;" horiz-adv-x="1198" d="M72 -340v1260q10 84 71 84q70 -18 70 -62v-393q0 -252 143 -338q92 -70 203 -70q215 0 324 221q20 68 20 144v426q14 72 74 72q70 -14 70 -70v-873q0 -47 -70 -61h-2q-72 12 -72 68v69h-4q-152 -137 -330 -137h-24q-178 0 -332 141v-495q0 -47 -72 -62q-55 0 -69 76z" />
<glyph unicode="&#x3bd;" horiz-adv-x="1218" d="M88 942v19q12 68 68 67h8q57 0 100 -123l324 -661q350 741 370 766q25 18 50 18q76 -16 75 -70v-4q0 -20 -165 -360l-279 -571q-33 -23 -51 -23h-4q-63 0 -113 143q-363 744 -383 799z" />
<glyph unicode="&#x3be;" horiz-adv-x="950" d="M84 1116.5q0 186.5 192 290.5q55 27 132 27h182q72 -12 72 -72v-4q-12 -74 -72 -74h-168q-143 0 -182 -129l-9 -43q25 -174 177 -174h2l92 18q72 -18 71 -63v-25q0 -57 -112 -75q-211 -109 -211 -299v-27q0 -188 199 -295q35 -23 213 -37q209 -82 208 -274v-4 q0 -201 -225 -279h-6q-74 16 -74 66v14q0 57 92 82q68 47 68 121q-20 137 -135 137l-12 -4q-244 0 -408 231q-72 131 -72 252q0 193 152 354q-166 99 -166 285.5z" />
<glyph unicode="&#x3bf;" horiz-adv-x="1243" d="M84 502q0 244 215 409q139 92 287 93q197 0 352 -148q150 -156 149 -354q0 -283 -266 -443q-119 -59 -223 -59h-31q-203 0 -377 190q-106 150 -106 312zM231 496q0 -203 195 -314q68 -35 149 -35h23q207 0 317 215q25 68 25 134v16q0 170 -152 283q-92 61 -206 61 q-227 0 -332 -238q-18 -57 -19 -106v-16z" />
<glyph unicode="&#x3c0;" horiz-adv-x="1163" d="M68 936q12 70 65 70v4l37 -4h770l41 4q66 -23 66 -68v-10q0 -49 -64 -70l-57 4h-19v-800q0 -53 -69 -66h-4q-55 0 -70 74v792h-414v-803q0 -49 -69 -63h-5q-70 12 -69 70v796h-19l-59 -4q-61 21 -61 74z" />
<glyph unicode="&#x3c1;" horiz-adv-x="1185" d="M59 -342v821q0 383 363 518q39 12 143 23q197 0 357 -148q152 -162 151 -360q0 -283 -270 -446q-119 -59 -225 -60h-31q-174 0 -344 152v-510q0 -49 -74 -64q-52 0 -70 74zM207 506q0 -205 196 -316q72 -37 152 -36h23q211 0 321 219q27 74 27 133v18q0 166 -156 285 q-90 63 -209 63q-227 0 -336 -241q-18 -57 -18 -107v-18z" />
<glyph unicode="&#x3c2;" horiz-adv-x="995" d="M80 481v45q0 256 260 428q129 63 244 64q172 0 172 -84v-21q-18 -63 -72 -63h-12l-84 12q-223 0 -332 -227q-15 -40 -25 -129q0 -223 238 -332q66 -16 199 -29q221 -86 221 -286v-4q0 -213 -238 -293h-8q-76 14 -76 67v17q0 59 97 84q72 49 71 129q0 100 -110 139l-25 4 l-12 -4q-287 0 -453 276q-55 111 -55 207z" />
<glyph unicode="&#x3c3;" horiz-adv-x="1353" d="M55 487v33q0 230 228 406q147 80 258 80l80 -5h518l32 5q66 -23 66 -64v-20q0 -41 -59 -64l-62 4h-209q154 -162 154 -358q0 -252 -232 -422q-135 -82 -260 -82h-28q-213 0 -383 199q-103 141 -103 288zM199 504q0 -221 223 -334q78 -23 119 -23h32q178 0 293 177 q47 80 47 186q0 193 -190 309q-78 39 -172 39q-193 0 -309 -186q-43 -90 -43 -168z" />
<glyph unicode="&#x3c4;" horiz-adv-x="1185" d="M80 938q12 70 65 70v4l37 -4h781l32 4q68 -18 68 -70v-8q0 -47 -59 -70l-64 4h-295v-794q-14 -74 -70 -74h-4q-70 12 -69 66v802h-299l-60 -4q-63 21 -63 74z" />
<glyph unicode="&#x3c5;" horiz-adv-x="1214" d="M84 520v400q10 84 74 84q70 -18 69 -62v-391q0 -252 144 -338q88 -70 200 -70q217 0 324 219q20 68 20 144v426q14 72 74 72q70 -14 70 -70v-465q0 -218 -209 -381q-131 -88 -268 -88h-25q-227 0 -395 223q-78 121 -78 297z" />
<glyph unicode="&#x3c6;" horiz-adv-x="1212" d="M35 541q0 246 227 424q23 16 43 16h10q70 -12 70 -70v-16q0 -35 -76 -84q-121 -127 -121 -256v-41q0 -193 201 -315l84 -31v612q0 141 166 219l63 13h29q145 0 291 -221q70 -125 70 -254q0 -305 -293 -478q-127 -51 -174 -51v-360q0 -66 -80 -78q-72 18 -72 70v372 q-102 12 -237 105q-201 176 -201 424zM625 164h4q90 6 215 115q94 123 94 235v41q0 174 -178 299l-39 6q-68 0 -92 -69l-4 -33v-594z" />
<glyph unicode="&#x3c7;" horiz-adv-x="1236" d="M113 -350q12 40 282 448q25 53 119 187l-401 635v14q15 74 73 74q55 0 113 -119l297 -463h6q319 508 365 563q23 16 45 19q74 -15 73 -74q0 -33 -182 -301l-215 -342q0 -12 320 -504q78 -121 77 -145q-16 -74 -69 -74q-59 0 -117 119q-47 63 -297 463h-6 q-334 -537 -365 -564q-18 -14 -47 -18q-55 0 -71 78v4z" />
<glyph unicode="&#x3c8;" horiz-adv-x="1374" d="M84 600v336q12 84 78 84h4q72 -12 72 -74v-303q0 -262 131 -369q71 -80 202 -110l19 -4v772q10 84 65 84h17q68 -15 67 -62v-794h4q100 6 234 123q119 121 119 329v334q12 74 73 74h5q76 0 75 -113v-325q0 -352 -348 -537q-119 -43 -162 -43v-317q0 -57 -71 -70h-4 q-57 0 -74 78v309q-94 6 -248 92q-258 191 -258 506z" />
<glyph unicode="&#x3c9;" horiz-adv-x="1320" d="M63 313q0 348 189 676q27 27 49 27h8q68 -12 68 -70v-4q0 -12 -82 -182q-86 -223 -86 -418v-29q0 -117 129 -161l39 -7q131 0 174 144l4 88v317l-4 39q23 66 65 66h11q59 0 67 -82v-375l4 -31l-4 -12q0 -90 121 -152l53 -6q125 0 170 138l4 34v29q0 268 -170 584v16 q12 70 68 70h4q57 0 107 -123q137 -283 137 -576q0 -193 -201 -290q-57 -23 -106 -23h-23q-129 0 -237 117q-96 -113 -234 -113h-12q-195 0 -293 209q-19 57 -19 100z" />
<glyph unicode="&#x3ca;" horiz-adv-x="587" d="M74 1165q16 72 63 72h17q68 -15 67 -61v-19q0 -55 -71 -67q-76 16 -76 75zM221 74v850q8 84 76 84q70 -18 70 -64v-878q0 -53 -70 -66h-4q-56 0 -72 74zM360 1161v10q0 49 68 66h10q70 -16 70 -66v-10q0 -59 -76 -71q-72 16 -72 71z" />
<glyph unicode="&#x3cb;" horiz-adv-x="1206" d="M84 520v400q10 84 74 84q70 -18 69 -62v-391q0 -252 144 -338q88 -70 200 -70q217 0 324 219q20 68 20 144v426q14 72 74 72q70 -14 70 -70v-465q0 -218 -209 -381q-131 -88 -268 -88h-25q-227 0 -395 223q-78 121 -78 297zM342 1200q16 72 66 72h14q68 -15 67 -62v-18 q0 -55 -71 -68q-76 17 -76 76zM629 1196v10q0 51 67 66h13q68 -14 67 -66v-10q0 -59 -76 -72q-71 17 -71 72z" />
<glyph unicode="&#x3cc;" horiz-adv-x="1228" d="M84 502q0 244 215 409q139 92 287 93q197 0 352 -148q150 -156 149 -354q0 -283 -266 -443q-119 -59 -223 -59h-31q-203 0 -377 190q-106 150 -106 312zM231 496q0 -203 195 -314q68 -35 149 -35h23q207 0 317 215q25 68 25 134v16q0 170 -152 283q-92 61 -206 61 q-227 0 -332 -238q-18 -57 -19 -106v-16zM434 1167v7q0 35 113 161q37 51 74 51q74 -18 73 -69v-6q0 -29 -82 -121q-61 -92 -112 -92h-4q-48 -1 -62 69z" />
<glyph unicode="&#x3cd;" horiz-adv-x="1177" d="M84 520v400q10 84 74 84q70 -18 69 -62v-391q0 -252 144 -338q88 -70 200 -70q217 0 324 219q20 68 20 144v426q14 72 74 72q70 -14 70 -70v-465q0 -218 -209 -381q-131 -88 -268 -88h-25q-227 0 -395 223q-78 121 -78 297zM438 1194v6q0 31 115 162q37 51 74 51 q72 -18 71 -70v-8q0 -33 -80 -121q-61 -92 -112 -92h-4q-48 0 -64 72z" />
<glyph unicode="&#x3ce;" horiz-adv-x="1308" d="M63 313q0 348 189 676q27 27 49 27h8q68 -12 68 -70v-4q0 -12 -82 -182q-86 -223 -86 -418v-29q0 -117 129 -161l39 -7q131 0 174 144l4 88v317l-4 39q23 66 65 66h11q59 0 67 -82v-375l4 -31l-4 -12q0 -90 121 -152l53 -6q125 0 170 138l4 34v29q0 268 -170 584v16 q12 70 68 70h4q57 0 107 -123q137 -283 137 -576q0 -193 -201 -290q-57 -23 -106 -23h-23q-129 0 -237 117q-96 -113 -234 -113h-12q-195 0 -293 209q-19 57 -19 100zM518 1180v8q0 29 115 160q37 53 74 53q72 -18 71 -72v-6q0 -33 -80 -121q-61 -92 -112 -92h-4 q-50 0 -64 70z" />
<glyph unicode="&#x2000;" horiz-adv-x="929" />
<glyph unicode="&#x2001;" horiz-adv-x="1861" />
<glyph unicode="&#x2002;" horiz-adv-x="929" />
<glyph unicode="&#x2003;" horiz-adv-x="1861" />
<glyph unicode="&#x2004;" horiz-adv-x="620" />
<glyph unicode="&#x2005;" horiz-adv-x="464" />
<glyph unicode="&#x2006;" horiz-adv-x="309" />
<glyph unicode="&#x2007;" horiz-adv-x="309" />
<glyph unicode="&#x2008;" horiz-adv-x="231" />
<glyph unicode="&#x2009;" horiz-adv-x="370" />
<glyph unicode="&#x200a;" horiz-adv-x="102" />
<glyph unicode="&#x2010;" horiz-adv-x="669" d="M68 575q23 72 75 72h402q57 0 76 -80q-18 -76 -76 -75h-402q-63 -1 -75 83z" />
<glyph unicode="&#x2011;" horiz-adv-x="669" d="M68 575q23 72 75 72h402q57 0 76 -80q-18 -76 -76 -75h-402q-63 -1 -75 83z" />
<glyph unicode="&#x2012;" horiz-adv-x="669" d="M68 575q23 72 75 72h402q57 0 76 -80q-18 -76 -76 -75h-402q-63 -1 -75 83z" />
<glyph unicode="&#x2013;" horiz-adv-x="1107" d="M84 432q12 76 72 76v4l41 -4h718l37 4q57 0 76 -80q0 -53 -63 -80l-68 4h-682l-63 -4q-68 25 -68 80z" />
<glyph unicode="&#x2014;" horiz-adv-x="2048" d="M0 500q12 76 72 75v5l41 -5h1822l37 5q57 0 76 -80q0 -53 -63 -80l-68 4h-1786l-63 -4q-68 25 -68 80z" />
<glyph unicode="&#x2015;" horiz-adv-x="2004" d="M92 539q12 76 74 75v4l39 -4h1599l37 4q72 -23 72 -75v-8q0 -51 -64 -76l-67 4h-1557l-63 -4q-70 25 -70 80z" />
<glyph unicode="&#x2017;" horiz-adv-x="950" d="M-2 -98q20 70 74 69h884q74 -12 74 -69v-13q-14 -70 -69 -69h-889q-62 0 -74 82z" />
<glyph unicode="&#x2018;" horiz-adv-x="555" d="M176 1294q0 133 143 256l46 17q27 -8 26 -31v-8q-59 -143 -59 -246q0 -59 49 -139l4 -21q0 -63 -86 -80q-95 0 -123 252z" />
<glyph unicode="&#x2019;" horiz-adv-x="555" d="M184 1063v10q61 143 62 238v12q0 61 -49 143v21q16 72 63 72h29q86 0 112 -236v-20q0 -127 -145 -248q-29 -16 -43 -17q-21 7 -29 25z" />
<glyph unicode="&#x201a;" horiz-adv-x="555" d="M180 -264q59 139 60 235v13q0 63 -47 143v20q16 72 63 72h29q84 0 110 -235v-21q0 -129 -143 -248q-27 -14 -43 -14q-20 6 -29 23v12z" />
<glyph unicode="&#x201b;" horiz-adv-x="448" d="M106 1292v21q27 236 113 235h29q49 0 65 -71v-21q-49 -84 -49 -143v-13q0 -92 62 -235v-12q-8 -18 -29 -25q-12 0 -45 16q-146 121 -146 248z" />
<glyph unicode="&#x201c;" horiz-adv-x="909" d="M223 1317q0 133 146 256l43 14q29 -10 28 -31v-8q-59 -143 -59 -243q0 -66 47 -142l4 -18q0 -63 -84 -80q-98 0 -125 252zM512 1264v67q0 111 135 230q25 18 53 18q27 -12 27 -35q-63 -139 -63 -244q0 -57 53 -151v-12q-14 -76 -74 -76h-14q-83 0 -117 203z" />
<glyph unicode="&#x201d;" horiz-adv-x="909" d="M219 1085v13q61 143 62 235v13q0 59 -50 143v20q16 72 66 72h27q86 0 112 -235v-21q0 -129 -143 -248q-29 -16 -45 -16q-21 6 -29 24zM516 1098v4q59 137 59 248q0 66 -47 139v33q18 63 72 63h12q94 0 119 -244v-8q0 -133 -143 -252l-39 -16q-33 0 -33 33z" />
<glyph unicode="&#x201e;" horiz-adv-x="909" d="M203 -250q59 139 59 238v12q0 61 -49 143v21q16 72 66 72h26q86 0 113 -236v-20q0 -129 -144 -248q-29 -16 -45 -17q-16 6 -26 25v10zM498 -246q59 137 59 248q0 68 -47 141v31q18 66 72 66h12q96 0 121 -244v-8q0 -131 -146 -252l-39 -17q-33 0 -32 31v4z" />
<glyph unicode="&#x2020;" d="M133 1001q12 76 72 76v4l41 -4h190v291q16 74 74 74h10q61 0 74 -76v-289h190l37 4q55 0 76 -80q0 -55 -68 -79l-61 4h-174v-1225q0 -68 -84 -80q-74 18 -74 72v1233h-172l-63 -4q-68 24 -68 79z" />
<glyph unicode="&#x2021;" d="M135 66q18 76 70 75h235v785h-172l-63 -4q-70 25 -70 79q12 76 74 76v4l39 -4h192v291q16 74 72 74h12q59 0 72 -76v-289h192l35 4q53 0 76 -80q0 -55 -68 -79l-59 4h-176v-785h235q49 0 68 -75q-15 -80 -80 -80h-223v-285q0 -68 -84 -80q-72 18 -72 72v293h-225 q-80 15 -80 80z" />
<glyph unicode="&#x2022;" horiz-adv-x="1024" d="M215 719q0 121 88 209q86 86 209 86q121 0 209 -88t88 -207q0 -123 -88 -211q-86 -86 -209 -86q-125 0 -211 86t-86 211z" />
<glyph unicode="&#x2026;" horiz-adv-x="2048" d="M129 139q0 88 100 127q20 8 39 8q104 0 135 -124v-25q0 -76 -96 -119q-16 -6 -39 -6h-4q-112 0 -135 139zM803 135q0 88 100 127q20 8 39 8q104 0 135 -125v-24q0 -76 -96 -119q-14 -6 -39 -6h-4q-112 0 -135 139zM1493 139q0 88 100 127q20 8 39 8q104 0 135 -124v-25 q0 -76 -96 -119q-16 -6 -39 -6h-4q-112 0 -135 139z" />
<glyph unicode="&#x202f;" horiz-adv-x="370" />
<glyph unicode="&#x2030;" horiz-adv-x="2492" d="M147 1075q0 236 250 344q55 16 103 17h18q168 0 285 -152q68 -100 67 -205q0 -233 -241 -344q-68 -18 -115 -18h-6q-213 0 -324 203q-37 75 -37 155zM291 63v17q0 33 106 160l893 1179q23 16 43 17h10q68 -14 68 -70v-14q0 -25 -139 -201l-860 -1137q-27 -14 -45 -14h-5 q-71 16 -71 63zM295 1071q0 -150 166 -205l39 -2h18q145 0 201 170l4 41q0 154 -164 209l-47 8q-152 0 -211 -159l-6 -54v-8zM836 348v23q0 190 190 307q90 45 170 45q211 0 334 -219q27 -78 26 -139v-13q0 -213 -223 -325q-66 -27 -137 -27h-6q-182 0 -303 178 q-51 90 -51 170zM981 365q0 -152 156 -209l53 -9h14q141 0 201 164l4 33v27q0 150 -174 200l-39 4q-160 0 -213 -178zM1628 352v25q0 188 191 305q90 45 170 45q211 0 333 -217q27 -78 27 -141v-13q0 -211 -223 -323q-70 -29 -137 -29h-7q-184 0 -303 178q-51 90 -51 170z M1774 369q0 -152 155 -209l53 -6h15q143 0 201 161l4 35v27q0 150 -174 201l-39 4q-158 0 -211 -179z" />
<glyph unicode="&#x2032;" horiz-adv-x="454" d="M100 1120v8q102 260 127 285q29 16 49 17h5q76 -12 75 -72v-21q0 -23 -168 -239q-18 -20 -36 -21h-9q-31 0 -43 43z" />
<glyph unicode="&#x2033;" horiz-adv-x="671" d="M109 1120v8q102 260 127 285q29 16 49 17h4q76 -12 76 -72v-21q0 -23 -168 -239q-18 -20 -37 -21h-8q-31 0 -43 43zM352 1110q0 10 113 270q34 37 67 37q80 -15 80 -80q0 -31 -108 -168q-68 -104 -96 -104h-13q-31 0 -43 45z" />
<glyph unicode="&#x2039;" horiz-adv-x="630" d="M168 446v46q0 37 147 143q41 47 80 47h8q76 -12 76 -76v-4q0 -51 -114 -127l-5 -4v-4q119 -82 119 -131v-4q-12 -76 -71 -76h-21q-29 0 -211 164z" />
<glyph unicode="&#x203a;" horiz-adv-x="630" d="M92 324v4q0 47 113 123l8 12q-121 84 -121 133v2q16 82 80 82q37 0 168 -121q63 -39 63 -76v-37q0 -46 -110 -122q-78 -76 -121 -76h-4q-76 15 -76 76z" />
<glyph unicode="&#x203c;" horiz-adv-x="849" d="M111 102q20 104 94 105h8q102 -14 102 -92v-23q0 -72 -94 -92h-12q-78 0 -98 102zM141 416v960q16 66 72 66h12q61 0 74 -70v-954q-18 -72 -78 -72q-80 13 -80 70zM514 102q23 104 94 105h8q104 -15 105 -92v-23q0 -70 -96 -92h-13q-78 0 -98 102zM545 416v960 q16 66 73 66h13q59 0 71 -70v-954q-18 -72 -75 -72q-82 13 -82 70z" />
<glyph unicode="&#x203e;" horiz-adv-x="835" d="M115 1282q12 76 71 76v4l39 -4h402l35 4q55 0 75 -80q0 -55 -67 -80l-60 4h-364l-64 -4q-67 25 -67 80z" />
<glyph unicode="&#x2044;" horiz-adv-x="460" d="M-502 4q0 34 117 172l977 1262q20 14 43 14h12q59 0 72 -76v-4q0 -34 -117 -172q-969 -1257 -983 -1268l-33 -12h-14q-51 0 -74 66v18z" />
<glyph unicode="&#x2215;" horiz-adv-x="460" d="M-502 4q0 34 117 172l977 1262q20 14 43 14h12q59 0 72 -76v-4q0 -34 -117 -172q-969 -1257 -983 -1268l-33 -12h-14q-51 0 -74 66v18z" />
<glyph unicode="&#x205f;" horiz-adv-x="464" />
<glyph unicode="&#x207f;" horiz-adv-x="786" d="M78 504v510q6 51 45 51q41 -12 41 -39v-47q94 86 211 86q123 0 221 -104q70 -84 70 -183v-280q0 -28 -43 -37h-2q-41 8 -41 41v248q0 168 -144 219q-31 8 -61 8h-8q-121 0 -187 -123q-16 -33 -16 -123v-231q0 -33 -41 -39h-2q-34 0 -43 43z" />
<glyph unicode="&#x20a3;" horiz-adv-x="1126" d="M-41 299v6q0 51 64 74l36 -4h121v987q12 72 70 72v4l18 -4h719l14 4q61 0 74 -84q-14 -68 -82 -68h-669v-512h440l49 4q53 0 68 -76q0 -49 -60 -73l-73 4h-424v-258h120l33 4q53 0 70 -76q0 -51 -60 -76l-61 4h-102v-137l4 -22q-16 -72 -72 -72h-6q-70 12 -70 72v159h-98 l-59 -4q-64 23 -64 72z" />
<glyph unicode="&#x20a4;" horiz-adv-x="944" d="M41 510v10q0 55 72 68h153l-10 55h-143q-72 16 -72 74q16 74 74 74h67q-90 158 -90 268q0 225 238 346q78 23 108 22h39q178 0 301 -165l4 -25q-18 -78 -75 -78q-31 0 -99 74q-61 47 -131 47h-22q-150 0 -211 -176l-4 -49q0 -55 75 -201l29 -63h256q78 -16 78 -74 q-16 -74 -66 -74h-206l8 -55h186q74 -12 74 -72v-4q-12 -72 -74 -72h-186q-8 0 -25 -71l-96 -222h381q8 0 41 78q31 31 59 31q76 -16 76 -76q0 -25 -72 -157q-27 -23 -53 -23h-553q-55 0 -72 76q4 23 144 327l12 37h-147q-68 13 -68 70z" />
<glyph unicode="&#x20a7;" horiz-adv-x="2027" d="M0 76v1278q10 84 63 84h347q201 0 346 -209q53 -111 53 -193v-35h88v308q10 82 64 82h14q66 -16 65 -60v-330h152l33 5q49 0 67 -72l20.5 14t22.5 15q113 59 224 59q256 0 403 -234l2 -28v-4q0 -59 -74 -72q-47 0 -98 86q-102 100 -233 100q-172 0 -271 -163l-4 -19 q0 -49 113 -59q442 -109 465 -117q106 -70 106 -178v-4q0 -156 -225 -283q-98 -43 -207 -43q-117 0 -217 57q-12 -61 -70 -61h-75q-174 0 -261 190q-16 49 -16 111v561h-119q-41 -100 -141 -180q-117 -80 -227 -80h-263v-534q0 -55 -71 -68h-4q-58 0 -72 76zM147 752h236 q190 0 262 182q14 35 14 90q0 168 -170 248q-43 18 -98 18h-244v-538zM1040 324q0 -143 93 -174l84 -7q-39 39 -62 72q-14 20 -14 41v23q0 55 82 63q35 0 100 -94q98 -92 227 -92q156 0 260 147l7 23v4q0 49 -66 55q-496 111 -526 137q-92 72 -92 170q0 86 75 168l-30 2 h-138v-538z" />
<glyph unicode="&#x20ac;" horiz-adv-x="1191" d="M0 729q0 377 344 617q184 111 381 110q227 0 422 -137q14 -27 14 -45v-8q0 -61 -80 -72h-4l-135 68q-131 43 -217 43q-262 0 -461 -236q-39 -57 -71 -137h743q74 -12 74 -74v-4q-12 -72 -74 -72h-778l-4 -53l4 -57h778q74 -12 74 -74v-4q-12 -72 -74 -72h-743 q88 -221 299 -319q117 -49 225 -49h12q170 0 340 106h25q68 -14 67 -67v-13q0 -82 -256 -157q-84 -23 -170 -23h-18q-360 0 -602 334q-115 194 -115 395z" />
<glyph unicode="&#x2105;" horiz-adv-x="1767" d="M51 1071q0 174 156 295q96 63 205 64q137 0 250 -105q8 -14 8 -27v-2q-9 -49 -49 -49h-5q-18 0 -84 49q-61 29 -114 29h-15q-154 0 -231 -160q-18 -55 -18 -96q0 -156 159 -235q49 -18 103 -19q89 0 178 74l20 4h9q37 0 47 -49v-2q0 -55 -168 -119q-66 -10 -84 -10h-21 q-143 0 -270 137q-76 106 -76 221zM289 63v23q0 27 141 201q817 1063 873 1128q20 14 40 15h13q55 0 67 -72v-2q0 -35 -125 -178q-129 -180 -892 -1164q-23 -14 -50 -14q-67 18 -67 63zM965 358q0 170 149 287q96 63 203 64q137 0 246 -103q104 -111 104 -248 q0 -199 -186 -311q-82 -41 -158 -41h-20q-143 0 -265 133q-73 104 -73 219zM1067 352q0 -143 135 -219q49 -25 107 -24h14q145 0 223 151q18 49 19 92v13q0 119 -109 198q-63 43 -143 43q-160 0 -234 -168q-12 -40 -12 -73v-13z" />
<glyph unicode="&#x2113;" horiz-adv-x="845" d="M96 342q0 25 189 291l8 14v520q0 197 192 258l50 7q172 0 239 -185l8 -53v-18q0 -90 -123 -244l-219 -330v-360q0 -90 64 -90h18q61 25 80 24q49 0 68 -74q-23 -102 -166 -102q-137 0 -203 158l-8 71v152q-74 -117 -117 -117h-6q-62 0 -74 78zM440 870q193 270 193 297 v35q0 61 -94 80h-4q-80 0 -95 -106v-306z" />
<glyph unicode="&#x2116;" horiz-adv-x="2269" d="M0 80v1268q10 84 63 84h17q47 0 82 -76q90 -104 821 -1051q8 0 8 -10l2 -4h4v1073q12 68 70 68h10q55 0 68 -72v-1284q0 -63 -78 -76q-45 0 -133 131l-787 1006v-1065q0 -55 -71 -68h-4q-56 0 -72 76zM1214 340q12 76 72 76v4l41 -4h721l35 4q57 0 76 -80q0 -55 -64 -82 l-67 4h-680l-66 -4q-68 25 -68 82zM1286 881q0 190 170 323q109 72 225 72q154 0 279 -117q119 -125 119 -278q0 -225 -211 -351q-94 -47 -176 -47h-25q-158 0 -297 152q-84 121 -84 246zM1403 874q0 -162 151 -245q57 -29 119 -29h19q164 0 250 170q20 53 20 104v15 q0 131 -121 221q-72 49 -162 49q-182 0 -264 -186q-12 -37 -12 -84v-15z" />
<glyph unicode="&#x2122;" horiz-adv-x="1495" d="M154 1409q8 33 30 33h434q33 -6 33 -33v-6q0 -25 -39 -31h-176v-569q0 -27 -33 -33h-2q-27 0 -32 37v565h-181q-34 6 -34 37zM762 799v602q2 39 29 39h8q27 0 39 -45l227 -510q12 14 160 354l88 191q10 10 22 10h8q27 0 29 -39v-602q-6 -37 -33 -37h-2q-35 6 -34 33v444 h-3q-199 -453 -206 -465q-16 -12 -27 -12q-31 0 -55 76l-178 399h-3v-442q0 -27 -34 -33h-2q-27 0 -33 37z" />
<glyph unicode="&#x2126;" horiz-adv-x="1708" d="M94 725q0 336 309 578q199 135 416 135q367 0 613 -340q111 -197 110 -373q0 -340 -262 -569h-4v-4h164q74 -16 73 -64v-16q-14 -68 -69 -68h-492q-59 0 -71 80q18 68 67 68q102 0 289 157q162 190 162 408q0 270 -246 469q-160 102 -319 102h-29q-276 0 -463 -248 q-102 -156 -102 -323q0 -330 305 -514q59 -35 176 -62q45 -18 45 -71q-23 -70 -74 -70h-483q-76 14 -76 76q18 74 74 74h160v2q-96 74 -164 180q-109 188 -109 393z" />
<glyph unicode="&#x212e;" horiz-adv-x="1173" d="M68 502q0 279 260 440q127 61 237 62q295 0 453 -275q53 -104 53 -233v-21q-12 -72 -70 -72h-772q43 -147 187 -223q80 -33 157 -33q84 0 195 56h23q66 -12 65 -68v-10q0 -92 -264 -125h-27q-268 0 -432 254q-65 121 -65 248zM217 547h705q0 74 -88 192 q-121 115 -238 115h-41q-175 0 -289 -172q-40 -67 -49 -135z" />
<glyph unicode="&#x215b;" horiz-adv-x="1497" d="M127 66v22q0 20 145 201q831 1083 879 1138q20 14 43 15h10q57 0 70 -72v-4q0 -35 -125 -178q-66 -92 -903 -1174q-23 -14 -49 -14q-70 19 -70 66zM170 1354q0 47 111 65q0 6 45 15q25 0 45 -33l-2 -58v-655l2 -35q-12 -41 -45 -41q-27 0 -41 31v684l-66 -14h-18 q-31 14 -31 41zM909 240q0 125 119 211q-47 35 -63 102q-6 15 -7 43v10q0 106 103 172q53 29 100 29q94 0 162 -86q41 -53 41 -115v-10q0 -88 -78 -156q111 -80 111 -200q0 -123 -111 -203q-63 -41 -131 -41h-10q-117 0 -201 115q-35 61 -35 129zM991 242q0 -113 119 -156 q16 -6 45 -6q108 0 154 117l4 30v23q0 90 -107 139q-31 10 -53 10q-113 0 -156 -118zM1040 598q0 -80 97 -115l24 -2q84 0 115 90l4 29q0 92 -94 119l-29 2q-82 0 -113 -88z" />
<glyph unicode="&#x215c;" horiz-adv-x="1521" d="M70 948q0 18 30 37h19q39 0 45 -82q43 -117 147 -117h13q111 0 149 132l4 30q0 109 -129 156q-68 0 -67 47q10 43 61 43q78 0 102 104v27q0 72 -100 107h-20q-86 0 -117 -99v-35q-14 -29 -39 -28h-10q-39 6 -39 37v8q0 141 162 198l47 5q123 0 186 -129q16 -37 16 -64 v-22q0 -82 -75 -154q109 -78 108 -205q0 -178 -194 -242l-54 -4h-8q-166 0 -233 197zM170 66v22q0 20 145 201q831 1083 879 1138q20 14 41 15h12q55 0 68 -72v-4q0 -35 -125 -178q-86 -121 -901 -1174q-23 -14 -51 -14q-68 19 -68 66zM950 240q0 125 119 211 q-47 35 -63 102q-6 15 -7 43v10q0 106 103 172q53 29 100 29q96 0 164 -86q39 -51 39 -115v-10q0 -88 -78 -156q113 -82 113 -200q0 -121 -113 -203q-63 -41 -129 -41h-10q-117 0 -201 115q-37 66 -37 129zM1034 242q0 -113 117 -156q16 -6 47 -6q104 0 152 117l4 30v23 q0 90 -105 139q-31 10 -53 10q-113 0 -156 -118zM1083 598q0 -80 97 -115l22 -2q84 0 115 90l6 29q0 92 -94 119l-29 2q-82 0 -113 -88z" />
<glyph unicode="&#x215d;" horiz-adv-x="1568" d="M53 887q14 39 45 39q45 0 45 -74q29 -84 86 -111q41 -16 74 -16q111 0 156 111q8 18 8 53q0 121 -125 160l-51 4h-148q-27 0 -39 34v314q0 22 37 37l23 -2h321q31 0 41 -45q0 -33 -45 -41h-291v-211h119q141 0 221 -146q25 -61 25 -104q0 -129 -123 -215 q-66 -35 -125 -35h-6q-147 0 -227 152q-21 55 -21 96zM229 66v22q0 20 146 201q854 1112 876 1138q20 14 43 15h13q55 0 67 -72v-4q0 -35 -125 -178q-66 -92 -903 -1174q-23 -14 -49 -14q-68 19 -68 66zM1010 240q0 125 118 211q-47 35 -63 102q-6 15 -6 43v10 q0 106 102 172q53 29 101 29q96 0 163 -86q39 -51 39 -115v-10q0 -88 -78 -156q111 -80 111 -200q0 -123 -111 -203q-63 -41 -129 -41h-12q-115 0 -198 115q-37 66 -37 129zM1094 242q0 -113 116 -156q14 -6 47 -6q106 0 152 117l4 30v23q0 90 -104 139q-31 10 -54 10 q-113 0 -155 -118zM1143 598q0 -82 94 -115l25 -2q84 0 114 90l4 29q0 92 -94 119l-26 2q-82 0 -113 -88z" />
<glyph unicode="&#x215e;" horiz-adv-x="1492" d="M100 655v9q4 14 375 669l4 13h-329q-43 9 -44 43q10 41 37 41h414q39 -8 39 -35v-11q0 -10 -23 -43l-403 -714q-14 -12 -27 -13h-2q-41 10 -41 41zM121 66v22q0 25 143 201q831 1083 879 1138q20 14 43 15h10q57 0 70 -72v-4q0 -35 -125 -178q-66 -92 -903 -1174 q-23 -14 -50 -14q-67 19 -67 66zM901 240q0 125 119 211q-47 35 -64 102q-6 15 -6 43v10q0 106 103 172q53 29 100 29q96 0 164 -86q39 -51 39 -115v-10q0 -88 -78 -156q111 -80 111 -200q0 -123 -111 -203q-63 -41 -129 -41h-12q-115 0 -199 115q-37 66 -37 129zM983 242 q0 -113 119 -156q16 -6 47 -6q104 0 151 117l5 30v23q0 90 -107 139q-31 10 -51 10q-115 0 -158 -118zM1032 598q0 -80 96 -115l25 -2q84 0 115 90l4 29q0 92 -94 119l-27 2q-84 0 -115 -88z" />
<glyph unicode="&#x2190;" horiz-adv-x="1921" d="M84 678q0 53 121 108q342 223 364 224h9q66 -12 65 -68v-6q0 -51 -143 -125l-99 -59v-4h1383q66 -14 65 -66q-16 -72 -65 -72h-1383l230 -147q12 -23 12 -43v-6q-12 -63 -61 -64h-19q-43 12 -420 256q-59 21 -59 72z" />
<glyph unicode="&#x2191;" horiz-adv-x="831" d="M88 936v16q0 25 94 170l180 291q18 18 52 25q51 0 108 -119q221 -340 221 -367v-10q-12 -61 -61 -61h-18q-39 0 -95 106l-86 131v-1374q0 -51 -65 -63h-4q-66 12 -66 65v1376h-4q-135 -240 -166 -239l-16 -2h-19q-55 18 -55 55z" />
<glyph unicode="&#x2192;" horiz-adv-x="1908" d="M68 684q18 63 61 64h1387v4q-205 121 -236 151l-8 33v12q0 46 67 62q31 0 299 -176q156 -88 185 -121l6 -25v-20q0 -39 -74 -70q-391 -248 -405 -248h-15q-63 12 -63 64v14q0 43 166 129l78 53h-1383q-53 0 -65 74z" />
<glyph unicode="&#x2193;" horiz-adv-x="806" d="M76 170v18q0 51 65 64h4q51 0 95 -98l94 -144v1315l-2 55q0 45 67 64q47 0 70 -60l-2 -59v-1317l149 230q23 14 41 14h5q66 -12 65 -68v-6q0 -29 -92 -168l-182 -293q-23 -20 -50 -20h-4q-47 0 -102 115q-219 335 -221 358z" />
<glyph unicode="&#x2194;" horiz-adv-x="1959" d="M88 670v2q0 49 74 78q358 231 405 247h6q70 -12 70 -65v-8q0 -49 -104 -99q-120 -80 -129 -80v-4h1140q-193 121 -227 152l-10 29v16q0 51 65 63h4q27 0 273 -161q181 -108 203 -129l10 -39q0 -49 -70 -76q-373 -240 -405 -250h-25q-55 18 -55 57v17q0 47 129 112 q6 10 110 70v4h-1157v-4q200 -117 240 -153q8 -16 8 -35v-8q0 -53 -70 -66q-29 0 -317 188q-156 88 -166 115z" />
<glyph unicode="&#x2195;" horiz-adv-x="823" d="M76 956v2q14 39 256 418q20 55 65 56h6q47 0 76 -72q240 -373 246 -402v-6q-16 -70 -69.5 -69.5t-100.5 104.5l-82 123v-1116l133 211q25 23 53 22q68 -14 68 -67q0 -35 -139 -246q-123 -205 -150 -227l-30 -6h-11q-47 0 -84 88q-233 359 -233 387v4q14 68 67.5 67.5 t104.5 -106.5l84 -133h2v1145h-2q-106 -182 -154 -238l-37 -12q-59 -1 -69 73z" />
<glyph unicode="&#x21a8;" horiz-adv-x="878" d="M104 956v2q14 39 256 418q20 55 66 56h6q49 0 78 -72q236 -369 244 -402v-6q-16 -70 -69.5 -69.5t-98.5 104.5l-84 123v-1116l135 211q25 23 51 22q70 -16 70 -67q0 -31 -142 -246q-123 -205 -149 -227l-31 -6h-10q-47 0 -84 88q-233 359 -233 387v4q14 68 67 67.5 t105 -106.5l84 -133h2v1145h-2q-111 -188 -152 -238l-39 -12q-60 -1 -70 73z" />
<glyph unicode="&#x2202;" horiz-adv-x="1130" d="M41 500q0 264 252 430q121 66 246 65q120 0 239 -61v4q-125 217 -413 315q-117 31 -205 31l-45 -4q-51 0 -68 72v12q12 68 70 68q549 0 813 -467q104 -170 104 -500q0 -164 -153 -330q-156 -135 -334 -135h-23q-238 0 -409 236q-74 132 -74 264zM182 500q0 -217 213 -326 q72 -31 144 -31q211 0 321 209q33 76 33 152q0 209 -217 321q-80 27 -137 27q-211 0 -322 -205q-35 -81 -35 -147z" />
<glyph unicode="&#x2206;" horiz-adv-x="1142" d="M0 82l508 1329q29 33 55 33h12q61 0 84 -117q477 -1229 478 -1245v-12q0 -57 -74 -70h-989q-62 0 -74 82zM188 150h764l-381 999h-4z" />
<glyph unicode="&#x220f;" horiz-adv-x="1376" d="M76 -344q0 51 76 70h67v1568h-80q-51 0 -63 80q0 51 76 70h999q78 -16 78 -74v-4q-16 -72 -66 -72h-80v-1568h68q78 -16 78 -76q-12 -74 -70 -74v-2l-26 2h-103l-18 -2l-23 2h-102l-23 -2q-57 0 -71 80v2q0 51 75 70h68v1568h-569v-1568h67q78 -16 78 -76 q-12 -74 -70 -74v-2l-26 2h-103l-18 -2l-23 2h-102l-23 -2q-57 0 -71 80v2z" />
<glyph unicode="&#x2211;" horiz-adv-x="1204" d="M70 1352v12q0 49 67 63h852q70 -16 70 -61v-18q0 -55 -72 -68h-686l619 -752l4 -26v-10q0 -25 -162 -209l-449 -551h680q76 -16 76 -64v-22q0 -43 -68 -64l-26 4h-797l-22 -4q-70 18 -70 64v22q0 28 160 209l506 619v4l-674 823z" />
<glyph unicode="&#x2212;" horiz-adv-x="1091" d="M90 690q12 78 72 78v2l41 -2h719l36 2q57 0 76 -80q0 -53 -63 -80l-70 4h-680l-63 -4q-68 25 -68 80z" />
<glyph unicode="&#x221a;" horiz-adv-x="1126" d="M0 360v7q0 52 80 67q53 0 94 -104l49 -92h4q641 1296 662 1321l43 20l37 -4h92l33 4q68 -18 67 -74v-6q0 -51 -63 -72l-62 5h-45q-8 0 -692 -1383q-22 -49 -68 -49h-4q-61 0 -106 125q-121 200 -121 235z" />
<glyph unicode="&#x221e;" horiz-adv-x="1312" d="M63 643q0 225 246 328l99 12q135 0 251 -113q123 113 259 113q213 0 323 -238l12 -102v-4q0 -240 -264 -332l-76 -8q-139 0 -254 111q-111 -111 -256 -111q-224 0 -325 246zM195 623q0 -115 149 -172h70q94 0 155 131l11 61q0 127 -152 186h-68q-114 0 -165 -159v-47z M737 627q0 -113 152 -172h67q94 0 156 131l10 61q0 129 -149 187h-68q-115 0 -168 -160v-47z" />
<glyph unicode="&#x221f;" horiz-adv-x="1429" d="M84 74v1091q10 84 74 84q70 -18 69 -61v-1045h1039q57 0 67 -77q-18 -66 -67 -66h-1112q-56 0 -70 74z" />
<glyph unicode="&#x2229;" horiz-adv-x="1220" d="M76 72v872q0 250 241 422q137 72 263 72q285 0 452 -285q49 -114 49 -209v-881q0 -47 -71 -63h-4q-70 14 -70 63v799q0 231 -105 314q-101 111 -251 110q-227 0 -330 -227q-27 -45 -27 -197v-794q0 -55 -71 -68h-5q-71 13 -71 72z" />
<glyph unicode="&#x222b;" horiz-adv-x="919" d="M18 -68q14 68 60 68h18q45 0 74 -78q31 -25 57 -24h11q78 0 77 137l179 1474q72 147 200 148h15q135 0 198 -148v-8q-12 -70 -67 -69h-6q-45 0 -78 65q-20 16 -54 23q-82 0 -81 -127l-183 -1489q-74 -145 -196 -146h-19q-139 0 -205 170v4z" />
<glyph unicode="&#x2248;" d="M104 887v10q0 57 160 121l62 8h4q47 0 352 -84h27q49 0 112 64l33 8q68 -14 68 -60v-16q0 -59 -142 -121l-75 -10h-9q-45 0 -352 84h-22q-47 0 -105 -57q-23 -16 -45 -17q-68 13 -68 70zM121 578v16q0 45 76 84q66 47 147 47q39 0 352 -84h33q37 0 117 70l22 4 q70 -16 70 -70v-6q0 -59 -154 -125l-59 -8h-29q-27 0 -340 84h-8q-59 0 -115 -55q-23 -16 -45 -17q-67 15 -67 60z" />
<glyph unicode="&#x2260;" horiz-adv-x="1026" d="M135 428q0 55 80 74h229v176h-231q-66 0 -78 84q23 72 78 72h231v118q0 51 66 62h4q66 -10 66 -66v-114h243q57 0 76 -80q-18 -76 -76 -76h-243v-176h239q80 -15 80 -80q-16 -78 -76 -78h-243v-117q-10 -70 -66 -69h-6q-63 8 -64 67v119h-239q-58 0 -70 84z" />
<glyph unicode="&#x2261;" horiz-adv-x="1159" d="M80 201q12 76 72 75v5l38 -5h721l35 5q59 0 78 -80q0 -51 -66 -80l-67 4h-680l-64 -4q-67 25 -67 80zM84 592q12 76 72 76v4l41 -4h718l37 4q57 0 76 -80q0 -53 -63 -80l-68 4h-682l-63 -4q-68 25 -68 80zM84 981q12 76 72 76v4l41 -4h718l37 4q57 0 76 -80 q0 -55 -63 -82l-68 4h-682l-63 -4q-68 25 -68 82z" />
<glyph unicode="&#x2264;" d="M96 80q12 76 62 76h667q51 0 64 -72v-12q-12 -72 -60 -72h-663q-60 0 -70 80zM96 680q0 59 150 131q537 344 555 344h12q76 -14 76 -76v-8q0 -51 -96 -98l-463 -289l538 -344q20 -20 21 -47v-12q0 -59 -80 -72q-35 0 -143 76l-549 344q-21 26 -21 51z" />
<glyph unicode="&#x2265;" d="M111 86q12 76 59 76h668q51 0 63 -70v-14q-12 -74 -59 -74h-672q-47 0 -59 82zM111 289v4q0 59 135 125l424 266v4q-508 309 -541 340q-18 18 -18 62q0 53 79 71q31 0 316 -188q350 -209 385 -244q10 -18 10 -41v-14q0 -43 -119 -105q-555 -352 -569 -352l-27 -4 q-75 13 -75 76z" />
<glyph unicode="&#xe000;" horiz-adv-x="1004" d="M0 1005h1005v-1005h-1005v1005z" />
<glyph unicode="&#xf001;" horiz-adv-x="1019" d="M0 938q0 37 59 68l76 -5h121v72q0 244 213 336q41 20 121 27q190 0 299 -189l14 -53q0 -55 -76 -72q-55 0 -94 95q-66 68 -147 67q-115 0 -170 -129l-13 -86v-68h164l60 5q47 0 65 -72v-12q0 -45 -67 -64h-222v-747l5 -43q0 -49 -74 -68q-53 0 -78 63l4 48v747h-197 q-51 0 -63 80zM760 68v899q16 72 71 71q76 -14 76 -73v-889q-12 -72 -71 -72h-5q-71 17 -71 64z" />
<glyph unicode="&#xfb01;" horiz-adv-x="1019" d="M0 938q0 37 59 68l76 -5h121v72q0 244 213 336q41 20 121 27q190 0 299 -189l14 -53q0 -55 -76 -72q-55 0 -94 95q-66 68 -147 67q-115 0 -170 -129l-13 -86v-68h164l60 5q47 0 65 -72v-12q0 -45 -67 -64h-222v-747l5 -43q0 -49 -74 -68q-53 0 -78 63l4 48v747h-197 q-51 0 -63 80zM760 68v899q16 72 71 71q76 -14 76 -73v-889q-12 -72 -71 -72h-5q-71 17 -71 64z" />
<glyph unicode="&#xf002;" horiz-adv-x="1079" d="M0 942q0 37 61 68l76 -4h121v71q0 248 213 338q39 20 121 29q190 0 301 -191l14 -43l-4 -45v-1013h80q49 0 66 -72v-4q-12 -72 -72 -72h-150q-57 0 -71 76v1102q-33 96 -166 108q-117 0 -172 -129l-12 -86v-69h163l62 4q47 0 63 -72v-12q0 -45 -67 -64h-221v-751l4 -43 q0 -49 -76 -68q-51 0 -76 66l4 45v751h-196q-54 0 -66 80z" />
<glyph unicode="&#xfb02;" horiz-adv-x="1079" d="M0 942q0 37 61 68l76 -4h121v71q0 248 213 338q39 20 121 29q190 0 301 -191l14 -43l-4 -45v-1013h80q49 0 66 -72v-4q-12 -72 -72 -72h-150q-57 0 -71 76v1102q-33 96 -166 108q-117 0 -172 -129l-12 -86v-69h163l62 4q47 0 63 -72v-12q0 -45 -67 -64h-221v-751l4 -43 q0 -49 -76 -68q-51 0 -76 66l4 45v751h-196q-54 0 -66 80z" />
<glyph horiz-adv-x="0" />
</font>
</defs>
</svg>
